<?xml version="1.0" standalone="no"?>
<!DOCTYPE svg PUBLIC "-//W3C//DTD SVG 1.1//EN" "http://www.w3.org/Graphics/SVG/1.1/DTD/svg11.dtd" >
<svg xmlns="http://www.w3.org/2000/svg" xmlns:xlink="http://www.w3.org/1999/xlink" version="1.1">
<metadata></metadata>
<defs>
<font id="lost_in_wildregular" horiz-adv-x="2584" >
<font-face units-per-em="2048" ascent="1536" descent="-512" />
<missing-glyph horiz-adv-x="1024" />
<glyph horiz-adv-x="0" />
<glyph unicode="&#xd;" horiz-adv-x="1024" />
<glyph horiz-adv-x="0" />
<glyph horiz-adv-x="0" />
<glyph unicode=" "  horiz-adv-x="1024" />
<glyph unicode="&#x09;" horiz-adv-x="1024" />
<glyph unicode="&#xa0;" horiz-adv-x="1024" />
<glyph unicode="!" horiz-adv-x="657" d="M117 547q2 45 18.5 78.5t38 57.5t44 38t38.5 22q41 25 79 9.5t66.5 -55.5t43 -96t10.5 -111.5t-32 -102.5t-85 -70q-55 -23 -98 -6t-72 54.5t-42 87t-9 94.5zM117 3138q-14 106 17.5 166.5t86.5 82t121 8t119 -52.5q33 -27 47 -82t18 -120.5t3 -130t-1 -109.5 q0 -78 -2 -212t-7 -300t-14 -350.5t-22.5 -360.5t-32 -331.5t-42.5 -264.5q-16 -68 -36 -113.5t-42.5 -64t-46 -7.5t-47.5 60q-10 20 -17.5 103.5t-13.5 210.5t-11.5 286.5t-10.5 334.5t-10 354.5t-13 345.5t-18.5 307t-24.5 240z" />
<glyph unicode="&#x22;" horiz-adv-x="923" d="M94 2549.5q-6 67.5 17.5 119t101.5 63.5q59 8 94 -11.5t54.5 -55t24.5 -84t2 -97.5t-9 -94t-10 -76q-12 -88 -31.5 -154.5t-46.5 -74.5q-43 -4 -75 56.5t-52 142.5q-16 55 -40 126.5t-30 139zM493.5 2549.5q-6.5 67.5 17.5 119t101 63.5q59 8 94 -11.5t54.5 -55t25 -84 t2 -97.5t-9.5 -94t-10 -76q-12 -88 -31.5 -154.5t-46.5 -74.5q-43 -4 -74.5 56.5t-52.5 142.5q-16 55 -39.5 126.5t-30 139z" />
<glyph unicode="#" horiz-adv-x="1710" d="M4 1731q-16 55 21.5 67t99.5 17l293 20q-4 129 -6 228.5t-2 140.5q0 57 21.5 129.5t56 135t78.5 106.5t89 46q43 6 65.5 -4t34 -33.5t12.5 -58.5t1 -80q-2 -135 -1 -283.5t-1 -303.5l98 4t97 2q-2 135 -5.5 237.5t-3.5 143.5q0 59 21.5 131.5t56.5 135t79 106.5t87 46 q43 6 67.5 -4t35 -32.5t12.5 -57.5t2 -78q-4 -147 -3 -307t-1 -334q125 -16 205.5 -51t95.5 -98q6 -25 -8.5 -36t-51.5 -14t-97 -1t-146 2l-4 -150q154 -10 257 -46t119 -109q6 -29 -12 -39.5t-64.5 -12.5t-123 0t-189.5 0q-12 -156 -33.5 -291t-58.5 -237t-89 -164.5 t-126 -71.5q-47 -6 -59.5 29t-7 123t20.5 234.5t24 363.5l-213 -14q-12 -158 -34 -297.5t-57.5 -244.5t-89 -169.5t-129.5 -73.5q-47 -4 -58 32t-5 124t20.5 234.5t20.5 363.5h-21q-43 -4 -98 6t-104.5 29.5t-84 46.5t-38.5 57q-8 29 -2 44.5t23.5 23.5t44 10t59.5 6 q53 4 109 7t116 8v124q-29 -4 -51.5 -6t-34.5 -2q-47 -4 -102.5 6.5t-104.5 31t-84 47t-39 55.5zM760 1497q51 4 102 6t103 4v138h-7l-194 -15q0 -35 -1 -66.5t-3 -66.5z" />
<glyph unicode="$" horiz-adv-x="1423" d="M-34 1937.5q5 96.5 34 195.5t80 194.5t123 175.5q78 88 177 150.5t218 84.5v6q-2 131 31 200t80 87t101 -6.5t95 -79.5q27 -35 34 -100.5t5 -143.5q100 -39 172 -105.5t106.5 -156.5t29.5 -198.5t-60 -229.5q-14 -29 -40 -37t-47.5 1.5t-28.5 36t16 67.5q43 76 46 136 t-26 107q-29 45 -79 73t-111 38q0 -10 -1 -19.5t-1 -17.5q-4 -55 -11.5 -134t-17.5 -175t-21.5 -208t-23.5 -232q137 -10 239.5 -49t170 -100.5t103.5 -139.5t42 -164q8 -113 -26 -232.5t-101.5 -229t-163.5 -200t-213 -143.5q-100 -45 -235 -67l-25 -119 q-18 -78 -40 -131.5t-42 -72.5t-39.5 -2t-34.5 79q-4 20 -5 81.5t3 153.5q-113 4 -215 38t-174 106q-25 25 -48.5 68.5t-39.5 96t-21.5 107.5t6 104.5t41 87t85.5 54.5q27 -10 33 -27.5t-17 -48.5q-31 -6 -43 -39t1 -73t55 -76.5t120 -53.5q119 -25 234 0q10 180 23 387 t26 424q-123 -16 -218.5 -0.5t-165 55.5t-113.5 101t-64 137q-23 82 -18 178.5zM397.5 1879q8.5 -75 57.5 -130q39 -45 104 -70q10 174 18.5 340t12.5 314l-4 -4q-61 -59 -107.5 -137t-68 -158t-13 -155zM737 776q57 48 125 146q53 84 78 165.5t20.5 152.5t-39 125t-98.5 83 q-20 -174 -41.5 -343t-44.5 -329z" />
<glyph unicode="%" horiz-adv-x="2273" d="M14 2247q0 117 31 230.5t91.5 203.5t150.5 146.5t209 58.5q137 2 225 -58.5t138 -152.5t67.5 -200t15.5 -198q-2 -106 -28.5 -205.5t-79.5 -181.5q-55 -86 -133 -134t-166 -60q-37 -6 -78 -6q-113 0 -196 47t-138 124.5t-82 178t-27 207.5zM369 2230q0 -78 11 -148.5 t34.5 -123.5t61.5 -83t91 -26q39 4 76 28.5t64 61.5q37 55 51 120t16 124q0 53 -6 114.5t-18.5 123t-33 118t-48.5 99.5q-33 49 -61.5 70.5t-55.5 21.5q-41 0 -74 -44t-57.5 -115.5t-37.5 -161t-13 -179.5zM621 307q0 27 25.5 126t68.5 247.5t100 336t118.5 392.5t125 415 t121 404.5t102.5 361.5t72 285q29 129 76 188.5t98 65.5t97 -30.5t75 -100.5q16 -41 7 -110.5t-30.5 -146.5t-48.5 -152.5t-43 -126.5q-29 -90 -82 -245t-120.5 -344.5t-143.5 -400t-153.5 -410.5t-151.5 -374t-133 -293q-37 -72 -70 -119t-57.5 -61t-38.5 7.5t-14 84.5z M1284 1061q0 117 31 230.5t92 203.5t151.5 146.5t206.5 58.5q137 2 225.5 -58.5t138.5 -152.5t67.5 -199.5t15.5 -199.5q-2 -106 -27.5 -206t-79.5 -179q-55 -86 -134 -134.5t-165 -62.5q-41 -6 -77 -6q-115 0 -198 47t-138.5 126t-82 179t-26.5 207zM1638 1044 q0 -78 11.5 -148.5t35 -123.5t61.5 -84t91 -26q41 4 77.5 29.5t61.5 62.5q39 55 52.5 118.5t15.5 122.5q0 53 -6 114.5t-18.5 123t-33 118t-49.5 99.5q-61 94 -116 94q-41 0 -74 -45t-57.5 -115.5t-38 -160.5t-13.5 -179z" />
<glyph unicode="&#x26;" horiz-adv-x="2369" d="M84 985q0 659 543 1006q-160 -18 -263.5 39t-161 156.5t-73.5 224t0 243.5q20 150 89 274t167 218t218 158.5t244 96t242.5 29.5t215 -39.5t162 -112.5t81.5 -188q14 -61 11 -115.5t-23 -92t-59 -54t-97 -4.5q-139 100 -266 114.5t-231.5 -26.5t-179 -124t-109.5 -178 t-22.5 -187t83 -152.5t205.5 -75t346 47.5l8 -125q-129 -96 -248.5 -199.5t-211.5 -228.5t-148.5 -276.5t-56.5 -344.5q0 -98 37 -189.5t103.5 -162t156.5 -112.5t196 -42q168 0 273.5 57.5t164 153.5t80 223t21.5 267q0 23 -4 78t-8 116q-47 -4 -121 -9t-151.5 -5t-148.5 7 t-112 28q-53 27 -88 73.5t-49 133.5q-2 8 4 8q4 0 50 -13.5t114 -29.5q117 -31 228.5 -31t218 17.5t209 42t202.5 42.5q49 8 108.5 18.5t118 6.5t109.5 -31.5t82 -95.5q4 -4 -2 -4q-72 0 -147.5 -13.5t-155.5 -34t-164 -45t-170 -46.5q4 -82 9 -163t5 -163 q0 -182 -67.5 -351t-187.5 -300t-282.5 -209t-351.5 -78q-160 0 -296 61.5t-236 168t-156.5 245.5t-56.5 297z" />
<glyph unicode="'" horiz-adv-x="477" d="M94 2549.5q-6 67.5 17.5 119t101.5 63.5q59 8 94 -11.5t54.5 -55t24.5 -84t2 -97.5t-9 -94t-10 -76q-12 -88 -31.5 -154.5t-46.5 -74.5q-43 -4 -75 56.5t-52 142.5q-16 55 -40 126.5t-30 139z" />
<glyph unicode="(" horiz-adv-x="976" d="M63.5 1934.5q12.5 246.5 60.5 483t132 456t197 405.5q76 41 142.5 33.5t115.5 -49t75.5 -108.5t22.5 -146q-184 -254 -288.5 -546t-132.5 -596t21.5 -607.5t174.5 -577.5q53 -117 100 -189.5t72.5 -114.5t19.5 -59.5t-57 -23.5q-66 -8 -152 65.5t-170 200.5 q-129 197 -205.5 422t-108.5 465t-19.5 486.5z" />
<glyph unicode=")" horiz-adv-x="903" d="M125 3009q-4 80 22.5 146.5t75.5 108t115.5 49t142.5 -33.5q113 -186 197 -405.5t132 -456t60.5 -483t-19.5 -486.5t-108.5 -465t-205.5 -422q-84 -127 -170 -200.5t-152 -65.5q-53 6 -58 23.5t20.5 59.5t72.5 114.5t100 189.5q125 274 174 577.5t21.5 607.5t-132 596 t-288.5 546z" />
<glyph unicode="*" horiz-adv-x="1306" d="M31 1589q-10 37 17.5 44t74.5 9l344 17q-16 23 -31.5 42t-27.5 42q-37 57 -63 115.5t-29 115t21.5 110.5t86.5 105q61 49 117.5 40t76.5 -89q8 -33 14.5 -67.5t14.5 -71.5q16 -63 38 -123.5t50 -118.5q57 76 111.5 139.5t102.5 106.5t90 60.5t73 2.5q18 -12 11 -34.5 t-39.5 -67.5t-90 -117.5t-135.5 -185.5q72 -4 135.5 -11t111.5 -20.5t78.5 -33t37.5 -48.5q4 -18 -11.5 -25t-55.5 -8t-105.5 1t-161.5 2q61 -80 133 -150t151 -123q29 -20 50.5 -34.5t52.5 -30.5q-4 -6 -6 -14.5t-9.5 -15.5t-22.5 -9t-44 6q-111 29 -240 103.5t-252 172.5 q-53 -82 -94 -148.5t-55 -88.5q-20 -31 -52 -61.5t-67 -53t-66.5 -33t-50.5 1.5q-35 18 -24.5 47t41.5 72q53 78 110.5 167t118.5 181l-289 -18q-33 -2 -73.5 5t-77.5 20.5t-62.5 32t-27.5 40.5z" />
<glyph unicode="+" horiz-adv-x="1286" d="M31 1591q-8 55 18.5 66.5t73.5 15.5q78 4 167 11.5t181 11.5l-33 297q-4 39 11.5 87t43 91t64.5 72.5t78 33.5q37 6 58.5 0t31.5 -21t13 -38t5 -49q6 -104 16.5 -222t18.5 -241q86 -2 161 -11t132 -28.5t94 -52.5t45 -82q4 -31 -15 -41t-69.5 -9t-133.5 5t-206 0 q2 -117 -6 -223.5t-34.5 -189.5t-72.5 -135t-118 -60q-43 -6 -55.5 20.5t-11.5 93t6.5 178t-2.5 277.5q0 4 -1.5 9t-1.5 9l-219 -22q-33 -2 -73.5 9t-76.5 31.5t-61.5 48.5t-27.5 58z" />
<glyph unicode="," horiz-adv-x="489" d="M41 593q-6 69 17.5 120t101.5 61q59 8 94 -11.5t54.5 -55t24.5 -84t2 -97.5t-9.5 -94t-10.5 -76q-12 -88 -31 -154.5t-46 -74.5q-43 -4 -75 56.5t-52 142.5q-16 51 -40 124.5t-30 142.5z" />
<glyph unicode="-" horiz-adv-x="1748" d="M180 2097q-4 4 2 4q4 0 45 -9t101 -24q102 -23 200.5 -22.5t191.5 13t183 32t176 33.5q43 6 95.5 14t103.5 5t95 -24.5t71 -72.5q4 -4 -2 -4q-82 0 -174 -17.5t-190.5 -42t-200 -47t-200.5 -35t-194.5 -5t-181.5 43.5q-47 18 -79 55.5t-42 102.5zM246 1122q-4 4 2 4 q4 0 45 -9t100 -23q102 -23 200.5 -23t192 12.5t183.5 32t176 33.5q43 6 95 14t103.5 5t95.5 -24.5t70 -72.5q4 -4 -2 -4q-82 0 -174 -17.5t-190.5 -42t-199.5 -47t-200.5 -35t-194.5 -5t-181 44.5q-47 18 -79 55t-42 102zM319 1475q-10 45 9.5 86t52.5 45q41 8 61.5 -22 t30.5 -66q4 -16 5 -35t-3 -37.5t-15 -31.5t-34 -17q-39 -6 -67.5 16.5t-39.5 61.5zM559 1782q-4 6 8 10l125 10q10 0 10 -8l3 -16q0 -10 -11 -17q-12 -12 -12 -30l35 -463q0 -20 18 -27q6 -4 10 -16v-19q2 -6 -8 -6l-127 -10q-8 -2 -8 6l-2 18q-2 6 8 17q16 16 15 29 l-35 462q-4 20 -19 31q-8 2 -8 14zM737 1796q0 6 11 10l86 6q10 0 12 -1t6 -7l149 -307l-20 256q-4 23 -18 29q-10 4 -11 14l-2 16q0 6 11 11l92 6q6 2 6 -6l2 -19q0 -8 -8 -16q-16 -12 -13 -31l39 -522q0 -12 -12 -12l-16 -2q-12 -2 -19 10l-198 409l26 -360q4 -23 19 -29 q12 -10 12 -14l2 -18q2 -8 -10 -9l-90 -6q-10 -4 -13 6v19q0 8 11 14q12 12 12 31l-35 463q-4 20 -18 30q-10 4 -11 13zM1180 1536q-10 45 9 86t52 45q41 8 61.5 -21.5t30.5 -66.5q4 -16 5 -34.5t-3 -37t-15 -32t-34 -17.5q-39 -6 -67.5 16.5t-38.5 61.5z" />
<glyph unicode="." horiz-adv-x="477" d="M20 547q2 45 18.5 78.5t38 57.5t44 38t39.5 22q41 25 78.5 9.5t66.5 -55.5t43 -96t10 -111.5t-31.5 -102.5t-84.5 -70q-55 -23 -98.5 -6t-72 54.5t-42 87t-9.5 94.5z" />
<glyph unicode="/" horiz-adv-x="1157" d="M31 362q0 27 25.5 126.5t68.5 248t100.5 336t119 392t124.5 414.5t120.5 404.5t102.5 361.5t72 286q29 129 76 188t98 65.5t97 -30.5t75 -100q16 -41 7 -111t-30.5 -146.5t-48.5 -152.5t-43 -127q-29 -90 -82 -244.5t-120.5 -344t-143.5 -400.5t-153.5 -410.5 t-151.5 -374t-133 -292.5q-37 -72 -69.5 -119t-57.5 -61.5t-39 7t-14 84.5z" />
<glyph unicode="0" horiz-adv-x="2273" d="M-45 1817q0 233 34 466.5t98.5 448.5t159.5 401.5t219 326.5t275.5 224t329.5 95q203 -2 358.5 -90.5t269 -233.5t189.5 -334.5t121 -395.5t63.5 -415t16.5 -391q-4 -338 -65.5 -641t-186.5 -551q-127 -252 -305 -397.5t-385 -184.5q-96 -18 -180 -18q-172 0 -313.5 65.5 t-254 181t-195.5 274.5t-138.5 346.5t-83 396t-27.5 426.5zM688 1761q0 -174 14.5 -339t44 -311t74.5 -269t107.5 -210t141.5 -133t177 -40q55 6 111.5 34.5t109 73.5t98.5 102.5t79 121.5v2q96 193 134 406.5t42 420.5q2 174 -13.5 374.5t-49.5 400.5t-87 385.5t-125 330.5 q-90 180 -175 259t-163 79q-76 0 -144.5 -68.5t-125.5 -189.5t-103.5 -284t-79 -350t-50 -391t-17.5 -405z" />
<glyph unicode="1" horiz-adv-x="1564" d="M18 2101q0 53 25 98.5t68 51.5h2q16 4 29.5 8t19.5 4q59 10 110.5 20.5t97.5 30t87 50t82 79.5q33 43 61.5 89t58.5 100q25 41 50.5 85t60.5 93q37 117 113 205q66 55 138.5 89t149.5 44q47 2 90.5 -8.5t75 -33t50 -55t18.5 -77.5q0 -25 -5 -52.5t-16 -56.5 q-84 -244 -131 -532.5t-47 -630.5q0 -266 35 -575.5t105 -639.5q8 -43 -6.5 -82.5t-69.5 -68.5q-53 -18 -102.5 9.5t-91.5 76.5t-72.5 106.5t-49.5 98.5q-68 154 -113.5 349t-73.5 407t-40 427t-12 408q0 57 1 111.5t3 105.5l-41 2q-10 -76 -62.5 -153.5t-125 -144 t-155.5 -115t-153 -62.5q-43 -8 -73.5 1t-51 29.5t-30 49.5t-9.5 59zM858 2992v64l41 -7l-16 -34z" />
<glyph unicode="2" horiz-adv-x="1986" d="M111 2939q12 88 58 175t116.5 167t160 148.5t189.5 119.5t207.5 80t212.5 29q23 0 48 -1t50 -5q152 -25 260.5 -84.5t177 -143.5t101 -190.5t32.5 -229.5q0 -162 -46 -348t-120.5 -378.5t-172 -385t-199 -367.5t-200.5 -325.5t-179 -261.5q117 20 215 31.5t180 11.5 q183 0 363 -41q86 -20 161.5 -50t131 -79t88 -121t32.5 -176q0 -14 -1 -34.5t-3 -37.5q-12 -80 -47 -136t-84 -56q-39 0 -86 33q-39 27 -80 57.5t-86 67.5q-197 135 -430 207.5t-493 76.5q-111 0 -205 -21.5t-168 -41.5q-49 -16 -85 -24.5t-54 -6.5q-25 4 1.5 59.5 t104.5 178.5q84 133 180.5 295.5t192.5 336.5t185 349.5t161 333t120 287.5t60 214q2 16 5 30.5t5 31.5q10 63 24.5 151t14.5 174q0 96 -27.5 166t-99.5 80h2q-90 14 -162.5 -20.5t-133 -100t-112.5 -149.5t-99 -168q-33 -57 -64 -110.5t-61.5 -93.5t-61.5 -64.5t-63 -24.5 q-25 0 -53.5 18.5t-63.5 59.5v-2q-49 59 -82 141t-18 168z" />
<glyph unicode="3" horiz-adv-x="2027" d="M47 2613q4 141 53.5 270.5t133 235t196.5 183t244 118.5q74 23 150.5 34t152.5 11q109 0 214 -22.5t199.5 -69.5t174.5 -119t137 -170q57 -111 89 -238.5t32 -267.5q0 -166 -50.5 -326.5t-164.5 -291.5h2q-61 -70 -147.5 -121t-202.5 -78q164 -57 280.5 -134t190 -166 t107.5 -187t34 -199q0 -119 -38 -239.5t-105.5 -232t-161.5 -208t-205 -168t-236 -112.5t-256 -41q-176 0 -353 84t-335 280l2 -6q-8 23 -13 48.5t-5 47.5q0 35 23.5 61.5t93.5 37.5q111 -135 219 -190.5t213 -55.5q129 0 244.5 73.5t202.5 189.5t138.5 258t51.5 278 q0 96 -29 183t-90.5 153.5t-159.5 105.5t-235 39q-72 0 -111 23.5t-43 62.5q-4 25 3 49.5t22.5 43t41 28.5t62.5 4q45 -10 90 -10q129 0 230.5 74.5t172 185t107.5 237.5t37 232q0 113 -29.5 193.5t-80 134t-116 79t-139.5 27.5q-96 2 -183 -12.5t-153.5 -50t-105.5 -97 t-39 -149.5q0 -47 8 -86q14 -70 15 -127q0 -74 -19.5 -130.5t-53.5 -94t-78 -57t-91 -19.5q-55 0 -110.5 26.5t-102.5 77.5t-81 128t-44 179z" />
<glyph unicode="4" horiz-adv-x="2336" d="M-254 1331q150 111 265.5 253t207.5 304t168 336t148 348q84 203 170 394.5t194.5 347t248.5 263t333 142.5h-2q63 4 118.5 -7t95.5 -38t63.5 -70t23.5 -100q0 -33 -7.5 -67.5t-19.5 -71.5q-106 -299 -166.5 -647t-60.5 -764q0 -104 5 -224t13 -233q166 35 301 90 t246 133q55 41 90 41q23 0 32 -20.5t9 -50.5q0 -37 -13.5 -83t-37 -89t-58 -81.5t-77.5 -58.5q-188 -90 -469 -129q25 -199 60.5 -404.5t76.5 -406.5q8 -53 -8.5 -103t-91.5 -87q-18 -6 -33 -10.5t-31 -4.5q-57 0 -110.5 42t-98.5 101.5t-79.5 124t-57.5 111.5 q-55 123 -102.5 273.5t-85.5 322.5l-105 -4q-119 -6 -225.5 -11t-210.5 -5q-190 0 -365.5 28.5t-347.5 106.5zM336 1405l225 4q94 2 199.5 5t204.5 11q-23 158 -39.5 300.5t-27.5 274.5t-16 258t-5 253v86t4 84l-43 4q-41 -190 -88.5 -353t-107.5 -314.5t-135 -300 t-171 -312.5z" />
<glyph unicode="5" horiz-adv-x="2220" d="M31 2265q0 141 18.5 294t50 299t72.5 278.5t88 232.5l10 18l6 25l58 22q111 43 236.5 65t256.5 22q156 0 313.5 -26t306 -70t281 -102t234.5 -126t170 -140.5t86 -142.5q16 -55 -8.5 -117.5t-73.5 -116.5t-114.5 -89t-131.5 -35q-76 0 -129 47q-43 37 -112.5 90 t-157.5 111.5t-192.5 118t-216 107.5t-227.5 81t-228 37q-33 -70 -73 -174.5t-81 -228.5t-81 -258t-70.5 -264t-49 -250t-18.5 -212q104 2 209.5 22.5t218.5 49.5q123 29 225.5 41t192.5 12q158 0 269.5 -39t182 -107.5t103.5 -161.5t33 -202q0 -111 -30 -230.5t-84 -239.5 t-129 -235.5t-165 -217.5q-188 -207 -356 -290t-312 -83q-127 0 -230 50t-176 124t-112 156t-39 143q0 35 16.5 58.5t53.5 23.5q20 0 57 -8.5t82 -18.5q59 -12 125 -24.5t127 -12.5q37 0 69.5 5.5t57.5 19.5q115 61 226.5 153.5t200.5 203t143.5 236.5t54.5 257 q0 63 -27 105t-73 66.5t-106.5 35t-127.5 10.5q-82 0 -164 -11.5t-149 -25.5q-68 -16 -130.5 -24.5t-119.5 -8.5q-23 0 -52.5 2t-52.5 7q-61 33 -106 97t-74 151t-42 192.5t-13 222.5z" />
<glyph unicode="6" horiz-adv-x="2113" d="M4 1573q0 246 42 497.5t122 486t196.5 440.5t265 359.5t329 241.5t387.5 88h33.5t35.5 -2q16 2 30.5 3t31.5 1q113 0 212 -45t174.5 -111.5t120 -142t44.5 -139.5q0 -49 -36 -79.5t-116 -30.5q-213 0 -390 -89.5t-316.5 -240t-243 -350t-170.5 -418.5q98 45 204.5 69.5 t229.5 24.5q186 0 321.5 -70.5t223.5 -189.5t130 -272.5t42 -319.5q0 -152 -33 -300t-94 -282q-55 -119 -140.5 -217t-189.5 -167.5t-225 -107.5t-250 -38q-47 0 -93 5t-94 18q-205 41 -352 167.5t-243.5 312t-142.5 416t-46 482.5zM694 1075q16 -88 39 -159.5t49 -131.5 q90 -195 217 -288q57 -41 109.5 -58.5t103.5 -17.5q72 0 135.5 31.5t117 84t97.5 118t76.5 134t51 133t24.5 113.5v-2q27 125 27 246q0 160 -45 290t-119 220t-167 139t-187 49q-86 0 -165 -43t-140.5 -134t-96 -231t-30.5 -337q0 -43 6 -74q2 -18 3 -33.5t-8.5 -27 t-32 -16.5t-65.5 -5z" />
<glyph unicode="7" horiz-adv-x="2039" d="M12 3381q0 106 39 177t111 71q23 0 48.5 -9t53.5 -26q55 -29 110.5 -64.5t112.5 -74.5q211 -115 420 -183.5t422 -86.5q29 -2 54.5 -3t50.5 -1q160 0 273.5 29.5t186.5 56.5v-2q35 10 61.5 18t37.5 8q23 0 22 -39q0 -41 -19.5 -130t-53.5 -240q-51 -227 -89 -494.5 t-55 -587.5q86 -10 191.5 -22.5t197.5 -23.5t154.5 -18t64.5 -7q-12 -53 -83.5 -71t-186.5 -18q-72 0 -164 5.5t-182 11.5q0 -31 -1 -73t-1 -75q0 -276 30.5 -577t90.5 -580q8 -47 -8.5 -91t-79.5 -73q-14 -4 -26.5 -8t-29.5 -4q-53 0 -99 36t-85 87t-67.5 106.5t-47.5 94.5 q-203 418 -221 1192q-147 2 -276 -9.5t-240 -40.5q-16 -6 -41.5 -16t-48.5 -22q-29 -14 -56.5 -24.5t-50.5 -10.5q-39 0 -67 43l2 -2q-18 31 0 65.5t78 57.5q94 61 256 88.5t354 27.5h88q0 223 16.5 467t49.5 531q-111 -29 -218.5 -41.5t-211.5 -12.5q-72 0 -147 6.5 t-152 16.5q-115 16 -217.5 49t-180.5 95.5t-124 165t-46 255.5z" />
<glyph unicode="8" horiz-adv-x="1923" d="M90 2820q0 117 28.5 231.5t83 219t130.5 192.5t172 152h-2q86 55 205.5 85.5t257.5 30.5q115 0 232.5 -24.5t226 -77.5t200.5 -136t154 -200v2q41 -86 61.5 -179t20.5 -196q0 -127 -33 -253.5t-90 -237.5q-51 -92 -135 -176t-189 -156q147 -66 242.5 -169t151 -223 t76 -246t18.5 -232q-6 -164 -56.5 -315.5t-152.5 -276.5q-104 -131 -255 -202t-327 -89q-41 -4 -79 -6t-73 -2q-217 0 -376.5 70.5t-265 188.5t-156.5 269.5t-51 313.5q0 125 32.5 251.5t97 242.5t161 214.5t223.5 169.5q-141 63 -241.5 149.5t-165 185.5t-95.5 209t-31 220 zM700 2742q16 -76 39 -138t49 -110v3q80 -162 207 -250q55 -35 106.5 -50.5t98.5 -15.5q102 0 187.5 58.5t146.5 142.5t99 174t46 156v-2q25 106 25 206q0 135 -43 244t-113.5 183.5t-159 115.5t-176.5 41q-82 0 -158.5 -36t-135 -112.5t-92 -194.5t-29.5 -284 q0 -16 1 -33.5t5 -29.5q2 -14 2 -26.5t-9.5 -21.5t-32 -14.5t-63.5 -5.5zM717 1143q0 -133 27.5 -256t86 -216t148.5 -146.5t217 -47.5q98 6 183 56.5t145 115.5l2 2q84 100 115.5 211t37.5 217q2 90 -11 191.5t-43 202t-76 195.5t-107 173q-66 80 -134.5 123t-127.5 47 l-35 -4q-20 -4 -40 -7t-40 -5q-78 -37 -142.5 -123t-110.5 -203t-70.5 -254t-24.5 -272z" />
<glyph unicode="9" horiz-adv-x="2260" d="M156 2611q0 152 31.5 300.5t93.5 283.5q55 119 140 216t190.5 166.5t227.5 106.5t251 37q41 0 88 -4t94 -14q197 -47 345 -186.5t248.5 -339t150.5 -447.5t50 -514q0 -90 -5 -180t-15 -183q-18 -158 -59 -330.5t-101.5 -343.5t-141.5 -332t-181 -292 q-66 -82 -138.5 -156.5t-153.5 -134t-171 -98.5t-191 -51q-31 -4 -72.5 -1t-84.5 13t-83 25.5t-65 35.5q-35 23 -57.5 51.5t-32.5 56.5t-9 52.5t11 38.5v-2q16 23 37.5 29t48.5 6q16 0 34.5 -2t39.5 -4q20 -4 47 -6t49 -2q41 0 83 10t83 38.5t80 82t74 137.5 q98 246 148 529.5t52 611.5l-28 20q-78 -35 -174.5 -54.5t-217.5 -19.5q-186 0 -321 71t-223 188.5t-130 271t-42 319.5zM319 2619q0 -160 46.5 -289.5t120 -220t165.5 -139.5t187 -49q86 0 164.5 43t140 133t96.5 230t31 337q0 43 -6 74q-4 18 -4 33.5t9 27t31.5 16.5 t65.5 5q-16 88 -38.5 160t-49.5 131q-45 98 -98.5 170t-118.5 119q-57 41 -109.5 58t-103.5 17q-72 0 -135.5 -31.5t-116.5 -82.5t-97 -118t-77 -134.5t-52.5 -133t-23.5 -114.5v2q-14 -63 -20.5 -123.5t-6.5 -120.5z" />
<glyph unicode=":" horiz-adv-x="753" d="M254 547q2 45 18.5 78.5t38 57.5t44 38t38.5 22q41 25 79 9.5t66.5 -55.5t43 -96t10.5 -111.5t-32 -102.5t-85 -70q-55 -23 -98 -6t-72 54.5t-42 87t-9 94.5zM266 1444q2 45 18.5 78.5t38 57.5t44 38t39.5 22q41 25 78.5 9.5t66.5 -55.5t43 -96t10 -111.5t-32 -102.5 t-85 -70q-55 -23 -98 -6t-71.5 54.5t-42 87t-9.5 94.5z" />
<glyph unicode=";" horiz-adv-x="700" d="M223 1444q2 45 18.5 78.5t38 57.5t44 38t38.5 22q41 25 79 9.5t67 -55.5t43 -96t10 -111.5t-32 -102.5t-85 -70q-55 -23 -98 -6t-71.5 54.5t-42 87t-9.5 94.5zM225 593q-6 69 17.5 120t101.5 61q59 8 94 -11.5t54.5 -55t24.5 -84t2 -97.5t-9 -94t-10 -76 q-12 -88 -31.5 -154.5t-46.5 -74.5q-43 -4 -75 56.5t-52 142.5q-16 51 -40 124.5t-30 142.5z" />
<glyph unicode="&#x3c;" horiz-adv-x="913" d="M37 1540q0 4 4 12.5t24.5 32l61.5 70.5t114.5 127t184.5 200.5t270 292.5q53 2 66.5 -4t21.5 -22q6 -16 13.5 -39t-6.5 -51l-512 -557l505 -523q47 -78 36 -128t-53 -71.5t-98.5 -16.5t-99.5 38z" />
<glyph unicode="=" horiz-adv-x="1509" d="M141 2048q-8 55 18.5 66.5t73.5 15.5q100 6 217 15t235 14.5t228.5 2.5t197.5 -20.5t143.5 -54.5t66.5 -98q4 -33 -18.5 -42.5t-79 -8.5t-150.5 5.5t-233 -1.5q-66 -4 -137.5 -10.5t-136 -12.5t-115 -11t-70.5 -7q-33 -2 -74 9t-76.5 31.5t-61.5 48t-28 58.5zM174 1526 q-8 55 18.5 66.5t73.5 15.5q100 6 217 15t235 14t228.5 2t197.5 -20t143 -54t67 -99q4 -33 -18.5 -42t-79 -8t-151 5t-233.5 -2q-66 -4 -137 -10t-135.5 -12t-115 -11.5t-70.5 -7.5q-33 -2 -74 9.5t-77 32t-61.5 48t-27.5 58.5z" />
<glyph unicode="&#x3e;" horiz-adv-x="976" d="M126 952q-11 49 36 127l506 523l-512 557q-14 29 -7 51t13 39q8 16 21.5 22t66.5 4q160 -174 270.5 -294.5t183 -200.5t114.5 -126t61.5 -69.5t24.5 -32t5 -12.5l-532 -639q-43 -33 -100.5 -38t-98.5 17.5t-52 71.5z" />
<glyph unicode="?" horiz-adv-x="1740" d="M38 2399q-13 75 0 158t42 164t65.5 154.5t71.5 133.5q92 154 219 246.5t267.5 132.5t281.5 31t262 -60t211 -141.5t127 -212t8.5 -270t-143.5 -318.5q-63 -123 -138 -248t-148.5 -248t-142.5 -239.5t-119 -221t-75.5 -194.5t-15.5 -158q10 -80 22.5 -135t11.5 -88 t-21.5 -45.5t-75.5 -8.5q-49 4 -89.5 29t-71 65t-54 90t-39.5 105q-25 86 0.5 191.5t81 224.5t131 248t152.5 262t143.5 265t103.5 259q49 162 51 266.5t-29.5 157.5t-89 62.5t-127 -16t-141.5 -82t-134.5 -132.5t-105.5 -168t-53 -190q-8 -66 -3 -116t-7 -81 q0 -51 -19.5 -82.5t-52.5 -45t-73.5 -9.5t-83.5 25q-92 41 -139.5 103t-60.5 137zM565 518q2 45 18.5 79t38 57.5t44 38t39.5 22.5q41 25 78.5 9.5t66.5 -55.5t43 -96.5t10 -111.5t-32 -102t-85 -70q-55 -23 -98 -6.5t-71.5 54.5t-42 87t-9.5 94z" />
<glyph unicode="@" horiz-adv-x="1972" d="M88 1417q0 160 41 332t117 337t186.5 313.5t248.5 260t304 177t354 65.5q217 0 376 -44t270.5 -121t181 -183.5t108.5 -231t53.5 -264t14.5 -280.5q0 -109 -17.5 -245t-51 -276.5t-81 -270.5t-106.5 -226q-37 -61 -81 -113.5t-89 -86.5t-89 -46t-80 6.5t-63.5 70.5 t-39.5 148q-10 76 -6.5 153t6.5 140q-27 -47 -61 -111.5t-74 -131t-88 -130t-102 -106.5t-115.5 -59.5t-131.5 8.5q-90 31 -140 106.5t-64.5 180t2 229.5t59.5 252t108.5 248.5t149.5 220t182 165t205 85.5q45 6 90 4t90 -19q41 -14 77 -54t52.5 -86t7 -90t-60.5 -67 q-119 -47 -233.5 -147t-200.5 -221q-31 -47 -73 -128t-70.5 -169t-31.5 -167t44 -122q29 -25 70.5 4t90.5 102q41 63 84 141.5t83 154t76 140t63 99.5q20 29 53 47.5t66.5 23.5t65.5 -6.5t50 -42.5q2 -6 5 -11t4 -16t1 -35t-4 -67q-25 -207 -16.5 -295t35 -84.5t63.5 84 t72 213t59.5 301.5t24.5 347q0 193 -33 336t-90 247.5t-134 172t-165 107.5t-182.5 56.5t-186.5 16.5q-70 0 -168 -42t-202.5 -122t-207 -195.5t-184 -265t-132 -330t-50.5 -387.5q0 -225 50.5 -398t129 -300t176 -212t191.5 -137.5t176 -74t129 -21.5q86 0 128 -9 t51.5 -23.5t-7 -29.5t-43 -29.5t-58.5 -23.5t-52 -9q-279 0 -510.5 102t-398.5 276t-259 403.5t-92 485.5z" />
<glyph unicode="A" horiz-adv-x="2770" d="M-872 1839q-1 10 -1 19q1 55 21 94q24 46 70 64q27 11 62 10q26 0 56 -6q70 -14 160 -64q74 -45 152 -91t164 -100q174 -100 363.5 -188t388 -162t401 -130t403.5 -93q78 287 142.5 579.5t120 555t104.5 476.5t96 343q63 248 227 344q122 71 297 71q60 0 127 -8 q70 -8 83 -99q5 -38 5 -85q0 -65 -10 -147q-43 -371 -74 -711q-30 -339 -40 -657q-5 -152 -6 -299q0 -161 6 -318q12 -299 55 -591t118.5 -580.5t192.5 -583.5q-4 -35 -17.5 -53.5t-32 -27.5t-38 -10t-37.5 1q-133 18 -251 150t-218 346t-181 491.5t-139 587.5 q-74 -16 -159.5 -27.5t-177.5 -17.5q-49 -195 -106.5 -374t-121 -333t-133.5 -274.5t-145 -198.5q-65 -60 -125 -68q-14 -2 -28 -2q-42 0 -74 20q-42 26 -64 78q-15 36 -15 77q0 17 3 34q84 74 159.5 182.5t142 241.5t125 289t109.5 324q-160 2 -328.5 18t-339.5 44t-340 69 t-329 92q-164 51 -310.5 113.5t-258 145.5t-180 190.5t-74.5 248.5zM1618 1151q66 -10 129.5 -14.5t126.5 -8.5q-35 211 -58.5 421t-35.5 421q-35 -205 -76 -409.5t-86 -409.5z" />
<glyph unicode="B" horiz-adv-x="2910" d="M14 1765q25 123 136.5 301.5t298.5 395.5q135 150 295.5 297t339 261.5t373 186.5t396.5 72q205 0 351.5 -58.5t243 -158t144.5 -231.5q48 -131 54 -279q1 -22 1 -45q-1 -125 -29 -257q-34 -154 -100.5 -298t-162.5 -268.5t-217 -213.5q4 -2 9 -4t12 -4q178 -66 310 -172 t217 -240q85 -136 122 -290q27 -114 28 -231q0 -41 -4 -83q-20 -281 -136 -480t-296 -324q-180 -126 -408 -180q-195 -46 -403 -46q-37 0 -73 2q-246 10 -494 78t-467 189q-35 18 -44 37.5t-3 37t23.5 31.5t35.5 25q186 -49 369.5 -89t363.5 -51q48 -3 94 -3q197 -1 360 55 q202 68 337 190t195 280q40 105 41 212q-1 54 -11 109q-30 163 -159 315.5t-371 261.5q-23 -131 -40 -244t-41 -225.5t-59.5 -234.5t-95.5 -269q-20 -49 -52 -111.5t-74 -118t-93 -92.5t-108 -37q-43 0 -63 24t-26 60q-3 17 -3 36q-1 22 3 46q6 45 17.5 88t23 79t15.5 55 q56 211 74 433q10 121 10 241q0 101 -8 202q-16 221 -63.5 434t-127.5 408q-35 72 -67.5 139.5t-59.5 130.5q-29 66 -29 120q-1 12 1 22q8 62 48 104q40 40 104 60q54 16 118 17q13 0 27 -1q106 -8 188 -53.5t142.5 -115t102.5 -159.5t69.5 -187.5t44 -197.5t24.5 -190 q78 25 150.5 78t134.5 126q106 129 161.5 267.5t59.5 267.5v21q0 117 -41 221q-45 112 -140.5 190t-239.5 115q-89 23 -195 23q-66 0 -140 -9q-186 -23 -376 -104t-376 -224q-117 -94 -217 -195.5t-181 -199.5t-141.5 -187t-100.5 -156t-59 -106.5t-15 -39.5q-63 0 -63 71 q0 20 5 47z" />
<glyph unicode="C" horiz-adv-x="2271" d="M4 1548q-2 51 -2 102q0 226 36 456q44 284 137 543t232.5 478t318.5 363q179 146 394 200q96 24 197 24q127 0 264 -38q205 -57 338 -183t174 -312q125 72 283.5 113.5t322.5 61.5q156 20 305 20h14q156 -1 273 -15q248 -27 489.5 -75t501.5 -103q131 -29 318.5 -65 t404.5 -64t449 -42q101 -6 199 -6q129 0 255 10q222 18 420.5 74t347 165.5t234.5 281.5q84 168 84 409v11q4 41 4 80.5t-4 78t-4 71.5t4 61q8 56 51 86q29 19 88 19q29 0 66 -5q119 -18 195.5 -89t116.5 -173t46 -226q1 -27 1 -54q0 -97 -16 -194q-22 -124 -69 -238 t-112 -196q-94 -123 -221.5 -219t-274 -166.5t-304 -116.5t-313.5 -71q-190 -31 -395 -31q-49 0 -101 2q-260 10 -528 46t-531 92.5t-503 111.5q-166 41 -326.5 78t-320.5 76q-117 29 -250 61.5t-270 61t-271 47.5q-134 20 -254 21h-11q-113 1 -209 -21q-100 -22 -169 -78 q1 -20 2 -41q0 -96 -30 -215q-8 -29 -24.5 -62.5t-41 -63.5t-55.5 -51.5t-68 -25.5q-21 -3 -39 -3q-51 0 -84 20q-45 28 -63 76q-13 35 -13 76q0 16 2 33q7 60 34.5 117.5t73.5 102.5t106 62q-47 77 -126 111q-69 30 -148 30q-11 0 -23 -1q-92 -5 -189.5 -51t-181.5 -132 q-82 -88 -156.5 -238t-135 -338t-100.5 -401q-41 -213 -53 -428q-5 -79 -4 -157q0 -133 14 -262q22 -204 85 -373t173 -290t275 -170q52 -16 106 -17q29 0 59 6q85 14 170 76t167 178t156 298q33 12 55.5 10t35.5 -11t17 -23.5t0 -28.5q-76 -176 -169 -320.5t-215 -246.5 q-123 -101 -279 -153q-131 -44 -295 -44q-32 0 -64 2q-272 14 -470.5 136t-329.5 315.5t-200 445.5t-79 528zM1795 2759q8 -38 40 -38q5 0 10 1q37 6 57 38q20 30 30 76q8 39 9 81q-1 6 -1 13q-2 48 -9 89q-49 -6 -84 -55.5t-48 -105.5q-8 -33 -8 -62q0 -19 4 -37z" />
<glyph unicode="D" horiz-adv-x="2807" d="M-101.5 1487q1.5 29 21.5 84q63 182 163.5 362.5t226.5 346t270.5 308t297 248t307 165t298.5 59.5q283 0 495.5 -82t362 -225.5t239.5 -336.5q92 -192 128 -413q26 -160 26 -328q0 -65 -4 -131q-14 -238 -71.5 -472t-156 -452.5t-231.5 -400.5q-125 -174 -276.5 -305 t-331.5 -201q-147 -59 -310 -69q-28 -2 -56 -2q-136 0 -279 42q-172 50 -354.5 165.5t-370.5 308.5q-29 31 -26 55.5t28 34.5q-2 -2 42 -39t125 -90t192.5 -112.5t244.5 -106.5q115 443 115 817q0 65 -4 128q-24 425 -164 765q-31 63 -59.5 122.5t-53.5 114.5 q-25 56 -25 102q0 11 2 22q8 54 42 90q34 35 92 53q52 16 114 16h15q109 -10 185.5 -56t129.5 -117t85 -160t50.5 -183t24.5 -188.5t8 -176.5v-58q0 -133 -7 -288q-9 -190 -43 -382.5t-100.5 -371t-177.5 -307.5q71 -11 137 -11q55 -1 106 7q114 16 213 75.5t185 165 t160 265.5q78 168 130 369.5t75 415.5q16 151 16 302q0 62 -2 124q-10 212 -56 400.5t-131 341t-214 247t-303 116.5q-41 5 -86 6q-142 0 -314 -55q-137 -43 -261 -117.5t-228 -166.5q-102 -92 -188 -192.5t-157 -197t-123 -183.5t-87 -152.5t-51.5 -104.5t-14.5 -39 q-37 0 -35.5 29z" />
<glyph unicode="E" horiz-adv-x="4030" d="M198 2196q-14 54 -13 118q0 77 20 168q18 78 55 136t86 84q37 20 80 19q14 0 30 -2q62 -9 130 -65q53 -43 110.5 -93t116.5 -103q137 -106 295 -198.5t330 -164.5t352 -124t364 -79q-16 78 -16 160q0 77 14 157q29 167 105 326.5t193.5 304t264 249t317.5 159.5 q132 43 272 43q40 0 81 -4q100 -10 192.5 -46t166 -97.5t125 -146.5t69.5 -193q7 -51 6 -100q0 -100 -28 -188q-42 -130 -128.5 -236.5t-209.5 -191.5t-261.5 -149.5t-284.5 -110.5t-282 -77q20 -35 76 -78t121 -69q45 -18 92 -30.5t84 -24t61.5 -20.5t26.5 -22 q4 -23 -23.5 -45t-71.5 -52t-97 -68.5t-103 -92.5q-59 -66 -95 -154.5t-49 -190.5q-8 -63 -8 -127q0 -39 3 -79q8 -106 39 -202q45 -143 130 -226q84 -82 192 -112q66 -18 137 -18q43 0 89 8q118 18 231.5 74.5t210.5 145.5t159 201q35 6 56.5 0t32.5 -18t12 -27.5t-5 -27.5 q-158 -276 -329 -451.5t-342 -266.5q-171 -92 -337 -106q-40 -3 -78 -3q-122 0 -233 35q-145 46 -264 143.5t-197 231.5q-77 134 -107 296q-15 80 -15 162q-1 85 15 174q30 174 130 353t282 345q-100 41 -173.5 96.5t-127.5 122.5q-179 -39 -373 -51q-90 -6 -180 -6 q-106 0 -212 8q-198 14 -390 52.5t-366 99.5q-135 47 -252 108.5t-195.5 149t-108.5 207.5zM2677 1894q168 18 303 62.5t241.5 103t183.5 126t128 134t76.5 126t27.5 100.5v9q-1 58 -25 101q-26 48 -80 68q-33 13 -76 12q-27 0 -59 -5q-81 -13 -188 -71 q-106 -59 -207.5 -147t-178.5 -190.5t-119 -212.5q-31 -81 -31 -160q0 -28 4 -56z" />
<glyph unicode="F" horiz-adv-x="2066" d="M-666 2001q55 168 169 325.5t269.5 298t344 257t392.5 203.5t415 139q210 53 412 63q44 2 88 2q154 1 298 -27q184 -36 330 -127q6 -25 12.5 -48t-8 -45.5t-60.5 -44t-147 -42.5q-92 3 -178 3q-131 0 -251 -7q-200 -12 -392 -51q98 -104 158.5 -283.5t77.5 -414.5 q4 -47 5 -94.5t3 -96.5q86 19 166 29q58 8 114 7q21 0 41 -1q25 -2 51.5 -2t52 -3t50.5 -12.5t47 -27.5q20 -18 33.5 -46t9.5 -54.5t-28.5 -48t-79.5 -27.5q-43 -4 -90.5 -4h-100.5q-66 -4 -133.5 -12.5t-134.5 -20.5q-4 -176 -21.5 -359.5t-51.5 -362.5t-84 -347t-118 -313 q-23 -47 -58.5 -114t-81.5 -135.5t-99 -126.5q-54 -58 -110 -86q-39 -19 -80 -20q-16 0 -34 4q-58 12 -114 82q92 176 152.5 370.5t90 398.5t31.5 413v32q0 193 -22 382q-113 -49 -215.5 -106.5t-190.5 -119.5q-4 4 -6 19.5t1 36t14.5 44t33.5 46.5q53 59 140.5 121.5 t197.5 121.5q-29 154 -71 299.5t-99 286.5q-84 156 -141 295q0 4 -4 8q-160 -78 -318.5 -181t-339.5 -239q-76 -76 -132 -141t-94 -114.5t-55.5 -78t-15.5 -28.5q-54 5 -54 60q0 27 13 65z" />
<glyph unicode="G" horiz-adv-x="2357" d="M33 1658q-1 26 -1 52q0 156 30 314q36 186 109 360t179.5 327.5t242.5 269.5t300 186.5t348 78.5q17 1 33 1q128 0 250 -41q137 -46 253.5 -133t209 -208t147.5 -263t68 -300q4 -41 4 -81q0 -118 -29 -236q-35 -29 -66 -35q-14 -504 -30.5 -913.5t-46.5 -735.5 q72 5 145 5q45 0 91 -2q118 -5 230.5 -20.5t214 -37.5t181.5 -47q242 -70 472 -160t472 -195q125 -51 303 -119.5t385 -136t432.5 -122t446.5 -78.5q121 -12 237 -12q96 0 189 8q205 20 371.5 101t282.5 233.5t159 398.5q25 82 30 158.5t22 130t64 72.5q17 8 43 8 q43 0 111 -21q115 -39 178.5 -122t83.5 -191q12 -59 12 -123q0 -52 -8 -107q-16 -123 -60 -240.5t-110.5 -222t-144.5 -174.5q-115 -104 -257 -175t-299 -114t-321 -60q-132 -14 -261 -14q-30 0 -60 1q-240 4 -495 59t-510 140t-503.5 188.5t-476.5 202.5q-156 70 -307 135 t-301 131q-119 53 -253 114.5t-272 117t-273.5 98.5t-258.5 59q-27 -225 -63.5 -408.5t-87.5 -329t-120 -254t-159 -184.5q-117 -98 -225 -126q-59 -15 -117 -15q-46 0 -90 10q-113 27 -183.5 83.5t-105 132t-40.5 163.5q-1 20 -1 40q0 69 15 138q18 90 57 174t92 154 q111 147 246 255t283 194q2 123 6 288.5t10 352.5q-147 -125 -318 -176q-143 -44 -302 -44q-31 0 -62 2q-209 45 -360.5 145.5t-252 239t-151.5 306.5t-57 349zM813 1410q12 -157 51 -288t103.5 -214t155.5 -106q25 -6 52 -6q71 0 156 44q96 47 211 151q6 156 12.5 312.5 t11.5 299t11 264.5t12 210q8 80 45 149.5t92.5 110.5t127.5 45h10q67 0 139 -45q8 -6 15 -11.5t14 -11.5q-12 92 -48 171t-90.5 140.5t-121 102.5t-140.5 57q-60 12 -115 12q-84 0 -157 -28q-123 -47 -218 -147.5t-163 -244t-109 -306t-55 -333.5q-8 -92 -8 -180 q0 -76 6 -148zM958 -649q-1 -7 -1 -14q0 -38 17 -68q19 -35 70 -47q25 -5 48 -5q54 0 100 29q65 41 114.5 118t86.5 175.5t59.5 192.5t34.5 172t14 114q-16 -6 -56 -25.5t-94.5 -55t-114.5 -90t-116 -128.5q-18 -25 -44.5 -67.5t-52.5 -94t-44 -105.5t-21 -101z" />
<glyph unicode="H" horiz-adv-x="2799" d="M-657 2066q-5 27 -5 52q0 36 11 66q18 50 64 75q39 21 98 21h22q74 -4 174 -46l342 -149q236 -94 479.5 -168t511.5 -123q-1 61 -1 122q1 206 11 412q14 268 43 516t75 468.5t108 392.5q94 256 280 334q98 41 216 41q107 0 231 -33q68 -19 70 -111v-9q0 -90 -35 -224 q-143 -553 -246.5 -1043.5t-144.5 -945.5q154 -10 300 -11h27q132 0 260 9q-2 97 -2 194q0 154 6 308q10 252 33 487.5t61 443.5t89 371q79 229 227 298q79 37 174 37q85 0 184 -29q54 -18 56 -102q0 -4 1 -8q0 -81 -28 -198q-115 -496 -197.5 -932t-117.5 -846 q-22 -254 -22 -505q0 -153 8 -305q22 -400 118 -817q-6 -31 -19.5 -47.5t-28.5 -22.5t-31.5 -4t-30.5 8q-109 33 -191 165t-140.5 333.5t-93 457.5t-48.5 539q-268 -90 -615 -123q-5 -123 -5 -245q1 -256 23 -510q34 -376 134 -773q-20 -66 -62 -76q-18 -4 -35 -4 q-22 0 -43 7q-129 35 -227 173t-170 351t-117 484.5t-65 572.5q-199 4 -394.5 23.5t-388.5 54.5q-176 31 -333.5 74.5t-282.5 111t-208 167t-109 240.5z" />
<glyph unicode="I" horiz-adv-x="1083" d="M-56 2804q8 66 52 112t114 66q59 17 130 17q14 0 28 -1q186 -12 305 -78.5t188.5 -174t100.5 -246.5t41 -297q9 -135 9 -285q0 -75 -2 -153q-7 -236 -38.5 -474.5t-90 -466t-146.5 -417.5q-23 -47 -58.5 -114t-81.5 -135.5t-99 -126.5q-54 -58 -110 -86q-40 -19 -81 -20 q-17 0 -34 4q-58 12 -114 82q137 260 205 559t72 607v40q0 287 -52 569q-56 302 -167 570q-84 156 -142 295q-30 72 -30 129q-1 13 1 25z" />
<glyph unicode="J" horiz-adv-x="2070" d="M-305 430v13q0 44 12 89q27 94 67 164t92 94q22 9 45 9q33 0 69 -19q63 -32 137 -143q199 -326 383 -517.5t342 -255.5q79 -32 150 -32q69 0 131 32q124 62 200 245.5t99 485.5q7 101 7 214q0 227 -30 504q-20 184 -61.5 366.5t-101.5 352.5t-138 326.5t-172 289.5 q-141 -84 -262 -177t-218.5 -184.5t-172 -173t-125 -144t-74 -99.5t-21.5 -37q-54 5 -54 60q0 27 13 65q39 117 173 279.5t345 355.5q131 143 303.5 260t366 201t399 132t405.5 55q33 1 65 1q165 0 321 -30q186 -36 340 -120q6 -25 12 -48t-8 -45.5t-60.5 -44.5t-146.5 -42 q-94 2 -207.5 2t-239.5 -6t-259 -20.5t-267 -38.5q86 -109 146.5 -256.5t99.5 -318.5t58.5 -358t20.5 -376v-24q0 -176 -13 -346q-15 -183 -41 -343q-66 -401 -191 -676.5t-290.5 -432t-362.5 -200.5q-83 -19 -169 -19q-116 0 -236 35q-207 60 -416 220t-400 412 q-10 33 -25.5 76t-26.5 90t-13 98z" />
<glyph unicode="K" horiz-adv-x="1675" d="M-144 2788q20 76 72 134t126 92q69 33 142 33h9q98 -14 181 -94t150.5 -198.5t118 -263t85 -286t53 -266t20.5 -206.5q111 137 199 292.5t151.5 320.5t99 335t42.5 334q1 66 -3 127q-1 25 -2 49q0 34 3 65q2 70 29.5 114t72.5 62q34 14 75 14q14 0 28 -1q58 -6 118 -35 q127 -59 190 -139q62 -79 76 -173q5 -34 4 -69q0 -62 -15 -129q-24 -104 -69 -215q-66 -166 -167 -332t-227 -315.5t-269 -274.5t-293 -207q180 -319 350 -585t365.5 -474t434.5 -354.5t558 -228.5q129 -34 175 -102q36 -54 36 -115q0 -16 -2 -32q-12 -79 -70.5 -157.5 t-140.5 -134.5q-43 -31 -93 -44q-49 -13 -99 -17q-32 -3 -64 -3q-16 0 -31 1q-45 2 -77 2q-119 6 -242 61.5t-241 147.5t-230.5 213t-213 258t-185.5 282.5t-147 285.5t-102 268t-49 231q-10 -127 -26.5 -264.5t-42 -270.5t-62 -253.5t-89 -212t-120 -144.5t-155.5 -53 q-61 0 -77 50q-12 35 -12 78q0 19 2 39q7 66 26.5 129.5t29.5 92.5q54 168 74 368q14 139 14 286q0 64 -3 129q-9 214 -45 434.5t-97.5 429t-146.5 396t-189 337.5q-21 52 -21 101q1 29 8 57z" />
<glyph unicode="L" horiz-adv-x="1984" d="M-255 1850q22 20 55 20h6q38 -2 77 -35q35 -29 68 -57.5t65 -57.5q104 -86 205 -157.5t217 -116.5q104 -42 215 -54q32 -4 65 -3q83 0 175 22q4 57 7 114.5t7 116.5q12 209 29.5 408t47.5 376t77 326.5t120.5 258t177 169t245.5 60.5q10 0 47 -12.5t83 -33t95 -47 t84 -52.5q16 -10 39 -35l43 -39q59 -63 83.5 -176t24.5 -269q0 -129 -25.5 -256t-68.5 -245.5t-102.5 -225t-126 -196.5t-139 -159t-142.5 -110l-69 -41q-2 -23 -40 -224t-110 -601l23 -4q51 -12 100 -25.5t100 -29.5q236 -74 468.5 -170t467.5 -201q125 -53 301 -125 t383 -142.5t431 -130.5q225 -60 446 -86q139 -17 273 -16q78 0 153 6q205 16 372.5 93t286.5 229t166 395q25 80 32 157t27 131q19 53 66 73q16 7 40 7q44 0 114 -24q113 -41 174 -126q62 -85 80 -193q9 -53 9 -109q-1 -59 -11 -121q-20 -122 -65.5 -240t-113 -220.5 t-147.5 -169.5q-117 -102 -260.5 -171t-300 -109t-320.5 -54q-115 -10 -226 -10q-48 0 -95 2q-240 8 -494 68.5t-508 149.5t-501.5 196.5t-471.5 209.5q-156 72 -306 140.5t-298 138.5q-293 137 -522 233q-49 -111 -125 -202t-171 -156.5t-204.5 -101t-226.5 -35.5 q-164 0 -266 71q-104 70 -142 172q-23 62 -23 128q1 42 11 88q26 114 117 200q61 57 138 87t164 43.5t182 14.5t192 1q14 16 24.5 71.5t18.5 129t13 153.5t8 145.5t4 103t1 29.5q-42 -4 -84 -4q-70 0 -142 10q-116 16 -232 58q-141 47 -271.5 119.5t-240.5 160.5 q-98 84 -146 136q-33 52 -33 92q0 43 26 66zM150 254q0 -37 42 -62.5t140 -25.5q147 0 241.5 65.5t155.5 176.5q-55 16 -113 30q-56 13 -114 16q-13 1 -26 1q-45 -1 -89 -9q-57 -10 -113 -43q-55 -31 -89.5 -71.5t-34.5 -77.5zM1462 1606q129 98 220.5 222t147.5 263 t81.5 289.5t25.5 304.5q0 80 -15 145.5t-34 116.5q-96 -98 -162 -237q-88 -186 -145 -409.5t-94 -500.5q-14 -96 -25 -194z" />
<glyph unicode="M" horiz-adv-x="3450" d="M-270 2580q0 47 54 90.5t127 75t145.5 51t111.5 19.5q96 0 179 -61.5t153.5 -169t127 -254t99.5 -318.5q43 229 103.5 433t151.5 354.5t216 238.5t297 88q63 0 125.5 -36.5t119 -113.5t102.5 -194t77 -276q6 -41 12 -84t11 -90q39 178 73.5 308t68.5 223t67.5 156.5 t70.5 108.5q70 84 155 139.5t175 79.5q75 20 150 21q15 0 31 -1q91 -5 175 -42q147 -68 240.5 -208t144.5 -334t65 -428q7 -127 7 -259q1 -113 -5 -231q-12 -256 -43.5 -523.5t-73.5 -524.5t-86 -493.5t-81 -433.5q-20 -123 -37.5 -221t-32.5 -178q-68 -53 -136 -53t-128 35 q-51 31 -93 80t-71.5 104t-46 108.5t-16.5 92.5q0 55 14.5 174t35 280.5t45 355t46 402.5t35.5 421q15 212 17 408v55q0 166 -14 314q-16 172 -54.5 299t-104 201t-163.5 74q-51 0 -100.5 -63.5t-95.5 -168t-87 -236.5t-74 -270q-29 -115 -49 -221v-76q0 -170 -7 -330 q-9 -196 -24 -343q-12 -117 -30.5 -192t-53.5 -122q-25 -43 -58.5 -66.5t-75.5 -35.5t-92 -14.5t-107 -2.5q-12 0 -14.5 76t-2.5 201t-1 284.5t-10 325.5t-30.5 326t-61.5 284.5t-103.5 200.5t-155.5 76q-68 0 -120 -68.5t-92 -182.5t-71 -262t-57 -308q29 -180 43 -364.5 t16 -360.5v-47q0 -151 -11 -291q-13 -162 -40 -295q-20 -96 -50 -183t-84.5 -147.5t-142.5 -84.5q-37 -10 -83 -9q-63 0 -142 18q16 111 25.5 216.5t9.5 216.5q0 248 -45 502.5t-112.5 494.5t-147.5 454t-147.5 381.5t-112.5 279.5t-45 144z" />
<glyph unicode="N" horiz-adv-x="2629" d="M-47 2580q0 47 54 90.5t127 75t145.5 51t111.5 19.5q96 0 180 -62.5t155 -172t128 -259t100 -321.5q45 240 86 409.5t80 288.5t78 194t80 124q70 84 155 139q85 56 175 80q75 20 150 20q15 0 31 -1q91 -5 175 -42q147 -68 240.5 -208t144.5 -333.5t65 -427.5 q7 -127 7 -260q1 -113 -5 -231q-12 -256 -43.5 -523t-73.5 -524t-86 -494t-81 -433q-20 -123 -37.5 -221.5t-32.5 -178.5q-68 -53 -136 -53t-128 35q-51 31 -93 80t-71.5 104.5t-46 108.5t-16.5 92q0 55 14 174t34.5 280.5t45.5 355.5t46.5 402.5t35.5 420.5t16 409v46 q0 171 -13 323q-15 172 -54 299t-104.5 200.5t-164.5 73.5q-51 0 -100 -63.5t-95 -168t-87 -236.5t-74 -269q-16 -72 -31.5 -138.5t-27.5 -130.5q33 -186 50 -380q17 -192 20 -378q1 -35 1 -70q0 -149 -11 -287q-13 -171 -42 -312q-20 -96 -50 -183t-84 -147.5t-142 -84.5 q-37 -10 -83 -9q-63 0 -143 18q16 111 25.5 216.5t9.5 216.5q0 248 -45 502.5t-112.5 494.5t-147.5 454t-147.5 381.5t-112.5 279.5t-45 144z" />
<glyph unicode="O" d="M36 1875q1 71 10 138.5t34.5 120.5t73 85t125.5 32l108 -10q18 119 60 250.5t106.5 258.5t149.5 243t190.5 204t231 140t268.5 52q213 0 373.5 -93t277.5 -245.5t193.5 -347t122.5 -399.5t64.5 -402.5t18.5 -353.5q0 -197 -25.5 -413.5t-85 -426.5t-156.5 -400.5 t-240.5 -335t-337 -229.5t-445.5 -85q-182 0 -326.5 55.5t-256 151.5t-194.5 226t-141.5 280.5t-96.5 314.5t-58.5 326t-28.5 316.5t-8 287.5q0 52 -4 120q-3 54 -3 111v28zM827 1325q0 -70 4.5 -165t15.5 -204.5t31.5 -225.5t52.5 -226.5t78 -208.5t109.5 -173t145.5 -118 t184 -43q135 0 243.5 67.5t192.5 178t144.5 251t99.5 285t57.5 280.5t18.5 241q0 176 -11.5 369.5t-42 387t-87 376.5t-146.5 339l2 -2q-35 61 -83 121.5t-108.5 108t-131 77t-148.5 29.5q-111 0 -189.5 -84t-133 -215t-88 -293t-51 -317.5t-24 -288.5t-6.5 -205 q0 -90 8.5 -159.5t20.5 -155.5z" />
<glyph unicode="P" horiz-adv-x="2279" d="M-406 1800q27 141 148 345t319 452q98 119 212 235.5t238 221t257 193.5t270 153q135 61 269.5 96t271.5 35q252 0 432 -86t294 -229.5t163 -329.5q39 -148 39 -303q-1 -39 -3 -79q-12 -198 -83.5 -394.5t-197.5 -359.5t-304 -280.5t-406 -158.5q-2 -43 -4 -139.5 t-9 -223.5t-21.5 -274.5t-38 -295t-60.5 -283.5t-91 -241.5t-127 -168t-167 -62.5q-61 1 -77 51q-10 33 -10 71q0 21 4 45q8 66 27 130t26 92q53 210 71 434q9 119 9 237q1 105 -7 209q-16 222 -62 436t-122 409q-35 72 -64.5 140.5t-58.5 131.5q-27 67 -27 120q0 11 2 23 q8 62 45 103t99 61q57 18 127 17h14q147 -20 247.5 -108.5t161 -210.5t87 -260t29.5 -259q100 53 161 109q168 156 244 320q77 167 77 326q0 154 -62 292q-64 140 -174.5 248t-259 172.5t-315.5 70.5q-15 1 -30 1q-153 0 -313 -56q-176 -62 -344 -207 q-125 -111 -237.5 -234.5t-208 -246.5t-171.5 -235.5t-127 -200t-77.5 -138.5t-22.5 -51q-69 0 -69 79q0 24 7 56z" />
<glyph unicode="Q" d="M36 1875q1 71 10 138.5t34.5 120.5t73 85t125.5 32q29 -4 54 -5t54 -5q18 119 60 250.5t106.5 258.5t149.5 243t190.5 204t231 140t268.5 52q213 0 373.5 -93t277.5 -245.5t193.5 -347t122.5 -399.5t64.5 -402.5t18.5 -353.5q0 -160 -16.5 -332t-53 -344t-96 -335.5 t-145.5 -307.5q172 -41 369.5 -113.5t413.5 -160.5t445.5 -182.5t462 -179.5t465 -150.5t453.5 -94.5q146 -18 287 -18q72 0 142 4q208 15 390.5 91.5t337 222t271.5 379.5q25 80 31.5 156.5t26 131t67.5 73.5q16 7 39 7q45 0 114 -24q113 -41 174.5 -126t79.5 -193 q9 -53 9 -109q0 -59 -10 -122q-19 -122 -65.5 -240t-114 -220t-147.5 -170q-117 -102 -260 -171t-299.5 -108.5t-320.5 -53.5q-116 -11 -229 -11q-47 0 -93 2q-240 8 -493.5 68.5t-507.5 149.5t-502 196.5t-471 210.5q-156 72 -306.5 140.5t-297.5 137.5 q-174 82 -320.5 146.5t-296.5 117.5q-147 -164 -350 -261t-473 -97q-182 0 -326.5 55.5t-256 151.5t-194.5 226t-141.5 280.5t-96.5 314.5t-58.5 326t-28.5 316.5t-8 287.5q0 53 -4 120q-3 54 -3 111v28zM827 1325q0 -98 9.5 -244.5t35 -308.5t74.5 -318.5t129 -273.5 q80 61 179.5 91t209.5 36q37 2 75 2q75 0 153 -8q118 -12 235 -33q72 111 124 244t86 268t50.5 261t16.5 223q0 176 -11.5 369.5t-42 387t-87 376.5t-146.5 339l2 -2q-35 61 -83 121.5t-108.5 108t-131 77t-148.5 29.5q-111 0 -189.5 -84t-133 -215t-88 -293t-51 -317.5 t-24 -288.5t-6.5 -205q0 -90 8.5 -159.5t20.5 -155.5q-41 -6 -79 -13.5t-79 -13.5zM1147 90q59 -59 134 -94t167 -35t173 33t148 92l-122 37q-55 16 -112.5 29.5t-114.5 16.5q-14 1 -27 1l-89 -8q-57 -10 -112 -43q-12 -6 -23.5 -13.5t-21.5 -15.5z" />
<glyph unicode="R" horiz-adv-x="2099" d="M-561 2000.5q2 22.5 2 37.5q0 16 35 94t96 191.5t147 247.5t189 263q98 119 211.5 236t237.5 221.5t257.5 193.5t270.5 152q135 61 269 96t271 35q248 0 427.5 -84t293 -224t163.5 -322q42 -154 42 -317q0 -29 -1 -59q-9 -196 -75.5 -389.5t-186.5 -358.5t-292 -285.5 t-391 -169.5q180 -322 350 -588t365.5 -474t435.5 -354.5t557 -228.5q129 -34 175 -102q36 -54 36 -115q0 -16 -2 -32q-12 -79 -70.5 -157.5t-140.5 -134.5q-43 -31 -93 -44t-100 -17q-34 -3 -64 -3q-16 0 -30 1q-45 2 -78 2q-119 6 -241.5 61.5t-240.5 147.5t-230.5 213 t-213 258t-185.5 282.5t-147.5 285.5t-102.5 268.5t-48 230.5q-10 -127 -26.5 -264.5t-42 -270.5t-62.5 -253.5t-88 -212t-119.5 -144.5t-156.5 -53q-60 0 -76 50q-10 33 -11 73q0 22 3 44q8 66 27.5 129.5t25.5 92.5q53 211 71 434q9 118 9 236q1 106 -7 210 q-16 222 -62 436t-122 408q-35 72 -64.5 140.5t-57.5 132.5q-27 68 -27 121q0 11 1 22q7 61 45 102q39 40 101 60q57 18 126 18h14q147 -20 247.5 -108t161 -210t87 -260.5t28.5 -258.5q100 53 162 108q168 156 244 321q77 167 76 326q0 154 -62 292q-64 140 -174.5 247.5 t-259 172.5t-315.5 71q-15 1 -30 1q-153 0 -313 -56q-176 -62 -344 -207q-125 -111 -237.5 -235t-208 -247t-171 -235.5t-127 -199.5t-78 -138t-22.5 -51q-33 0 -46 16t-16 37.5t-1 44z" />
<glyph unicode="S" horiz-adv-x="2260" d="M74 2369q8 138 49 280t113.5 279.5t173.5 254.5q86 100 191.5 178t228 124t260.5 53q19 1 38 1q119 0 246 -37q205 -57 338 -183t174 -313q125 72 284 114q158 42 322 62q156 20 305 20h15q156 -1 272 -15q248 -27 489.5 -75t502.5 -103q131 -29 318 -65t404 -64 q218 -28 449 -42q101 -6 200 -7q127 1 253 11q222 18 421 74t347.5 165.5t234.5 281.5q84 168 84 409v11q4 41 4 80.5t-4 78t-4 71.5t4 61q8 56 51 86q29 19 88 19q29 0 66 -5q119 -18 195.5 -89t116.5 -173.5t46 -226.5q1 -27 1 -54q-1 -97 -17 -193q-22 -124 -68.5 -238 t-111.5 -196q-94 -123 -221 -219t-273.5 -166.5t-304.5 -116.5t-313 -71q-192 -32 -400 -32q-48 0 -97 2q-261 9 -528.5 46t-530.5 93.5t-503 111.5q-166 41 -326.5 78t-320.5 76q-117 29 -250 61.5t-270 61t-271.5 48t-254.5 20.5h-10q-114 1 -210 -21q-100 -22 -167 -78 q1 -20 1 -41q0 -96 -30 -215q-8 -29 -24.5 -62.5t-41 -63.5t-55.5 -51.5t-67 -25.5q-21 -3 -39 -3q-51 0 -84 20q-45 28 -63 76q-13 35 -14 76q0 16 2 32q7 60 34.5 118t73.5 103t106 61q-47 76 -138 120t-199 48q-11 0 -23 1q-98 0 -196 -34q-110 -38 -194 -124 q-86 -86 -150 -198q-66 -111 -96 -227q-22 -83 -21 -162q0 -32 3 -62q12 -108 80 -185q59 -66 160.5 -104.5t257.5 -38.5q236 0 405.5 -51.5t282.5 -140.5t170 -208.5t67 -255.5q2 -33 2 -66q1 -130 -37 -268q-48 -172 -143.5 -330.5t-232.5 -288.5t-303 -206 q-123 -57 -279 -89q-130 -27 -263 -27q-27 -1 -54 1q-160 6 -305.5 55.5t-245.5 154.5q-35 35 -69 97t-56.5 138t-30.5 157q-3 28 -3 54q1 52 11 98q16 70 58.5 124t122.5 77q35 -16 44 -41q2 -6 2 -12q0 -23 -24 -56q-43 -8 -61 -54q-9 -22 -8 -47q0 -27 10 -57 q18 -58 77.5 -111.5t170.5 -78.5q89 -19 175 -20q35 0 67 4q118 10 228.5 58t208 133t175.5 208q104 163 132 321q10 55 9 106q0 93 -33 168q-51 116 -182 174q-81 36 -195 35q-69 0 -149 -13q-113 -19 -210 -19q-62 -1 -116 7q-142 20 -244 78.5t-166.5 148.5t-95.5 201 q-25 94 -25 202q0 26 1 53zM1588 2585q8 -38 40 -38q5 0 10 1q37 6 57.5 37.5t30.5 76.5q9 41 8 84v10q-1 48 -10 89q-49 -6 -83.5 -55.5t-48.5 -105.5q-8 -34 -8 -63q0 -19 4 -36z" />
<glyph unicode="T" horiz-adv-x="1400" d="M-666 2001q55 168 169 325.5t269.5 298t344 257t392.5 203.5t415 139q210 53 412 63q44 2 88 2q154 1 298 -27q184 -36 330 -127q6 -25 12.5 -48t-8 -45.5t-60.5 -44t-147 -42.5q-92 3 -178 3q-131 0 -251 -7q-200 -12 -392 -51q104 -172 162 -374q60 -202 80 -418 q13 -132 12 -268q0 -86 -5 -173q-13 -225 -52 -444t-98.5 -427t-131.5 -390q-23 -47 -58.5 -114t-81.5 -135.5t-99 -126.5q-54 -58 -110 -86q-39 -19 -80 -20q-16 0 -34 4q-58 12 -114 82q150 308 216 652q55 288 55 576q0 57 -2 114q-13 346 -102 678.5t-251 619.5 q0 4 -4 8q-160 -78 -318.5 -181t-339.5 -239q-76 -76 -132 -141t-94 -114.5t-55.5 -78t-15.5 -28.5q-54 5 -54 60q0 27 13 65z" />
<glyph unicode="U" horiz-adv-x="2220" d="M-35 1514q-1 52 -1 104q0 164 10 333q12 222 36.5 434t57 406.5t69.5 354.5q53 53 124 87t145 47q40 7 79 7q34 0 67 -5q73 -11 129 -47t91 -99.5t35 -157.5q0 -57 -20.5 -193.5t-48 -321t-57.5 -400.5q-29 -216 -47 -432q-15 -189 -16 -367v-50q2 -202 34 -357 t102.5 -248t191.5 -93q49 0 97.5 52.5t92.5 138.5t84 194.5t70 220.5l17 60q-27 246 -30 502v74q1 216 15 420q18 239 54 446.5t88 357.5q52 149 118 228q53 64 115 64q14 0 29 -3q27 6 71.5 6t99 -6t111 -19.5t102.5 -34t78.5 -49t39.5 -65.5q2 -9 2 -25q0 -32 -8 -90 q-12 -86 -34 -216t-48.5 -299t-51 -364.5t-42.5 -410.5q-17 -214 -21 -438q-1 -50 -1 -100q0 -174 11 -347q14 -223 55 -436q16 -98 39 -190.5t51 -184.5q14 -44 14 -75v-9q-2 -33 -20 -52.5t-47 -26.5t-63 -7q-139 4 -251 89t-197 229.5t-145.5 337t-97.5 411.5 q-39 -117 -77.5 -205t-67.5 -159q-43 -106 -107.5 -178t-141.5 -115q-77 -44 -159 -60q-69 -14 -135 -13h-24q-78 3 -145.5 23.5t-114.5 53.5q-106 68 -182 193.5t-123.5 292.5t-72 366.5t-28.5 415.5z" />
<glyph unicode="V" horiz-adv-x="1855" d="M-158 2748q23 190 189.5 277.5t451.5 87.5q76 0 101.5 -61.5t25.5 -165.5q8 -362 33 -682t89.5 -612t180 -563t304.5 -537q-22 122 -22 279q0 54 3 113q10 228 50 489t104.5 539.5t143.5 546t168 506t179 420t174 290t156 114.5h13q237 0 536 -287q33 -30 41 -64 q3 -14 3 -30q0 -20 -6 -41q-10 -37 -36.5 -80t-63.5 -92q-190 -238 -356 -464t-304 -450.5t-246.5 -454t-186.5 -475t-123 -513t-55 -568.5q2 -29 -8.5 -45t-28 -25.5t-38 -12.5t-38.5 -3q-141 0 -281.5 78t-272.5 211t-253 312.5t-224.5 382t-185.5 419.5t-136 425 q-53 208 -75 398q-12 109 -13 203q0 71 7 135z" />
<glyph unicode="W" horiz-adv-x="3278" d="M14 2943q20 209 194.5 305t463.5 96q80 0 104.5 -66.5t26.5 -182.5q6 -418 33.5 -781.5t102.5 -695.5t207 -640t347 -616q43 140 52 316q5 105 5 212q0 71 -2 143q-6 179 -19 347t-18 297q-10 41 -18 81t-14 79q-2 15 -2 29q1 44 23 80q30 48 83 75t119.5 27t131 -33 t117 -103.5t74.5 -185.5q12 -68 31 -151.5t42.5 -176.5t51 -191.5t58.5 -196.5q-1 34 -1 70q-1 192 27 414q32 263 94 542.5t148 563.5t186.5 546t209 490.5t216 399.5t210 270t188.5 103h23q150 1 322 -71q185 -78 390 -234q43 -32 54 -70q5 -18 5 -38q0 -21 -6 -43 q-12 -43 -44 -92.5t-77 -104.5q-240 -285 -446.5 -552t-376.5 -531.5t-302 -532.5t-221 -555t-132 -597q-38 -272 -38 -575q0 -42 1 -85q-25 -27 -54.5 -32t-60.5 3q-11 -1 -21 -1q-98 0 -202 66q-114 74 -225 201t-211.5 293t-180.5 342q13 -154 21 -308q4 -75 4 -147 q0 -76 -4 -149q-8 -141 -32.5 -258t-74.5 -193q-12 -6 -34 -10q-18 -8 -39 -11t-39 -3q-145 0 -288.5 85t-279 232.5t-259 344t-230 419.5t-190.5 462t-140 468t-78 438q-13 122 -13 229q0 76 7 144z" />
<glyph unicode="X" horiz-adv-x="2045" d="M-84 64.5q4 23.5 40 76t114 140.5q174 205 329.5 412.5t302.5 430.5q-186 248 -329.5 509t-235.5 497q-69 180 -109 352q-29 125 -29 242q0 45 4 89q15 159 101 299t269 255q88 53 172 69q31 6 59 5q48 -1 90 -17q66 -26 109 -97t49 -189q8 -92 9 -191.5t3 -210.5 q33 -504 203 -999q100 186 181 362t141 342q29 82 51 156t49 143q31 88 79 157t104.5 116t117.5 71.5t117 24.5q113 -9 147 -75q21 -40 21 -95q-1 -37 -9 -79q-22 -108 -92 -250t-164 -302q-147 -242 -296.5 -468t-315.5 -443q131 -305 303 -564.5t389 -476.5 q118 -117 146 -163q11 -18 11 -29q0 -13 -18 -12h-8q-152 14 -306 81.5t-304.5 174t-294 245t-274.5 295.5q-82 -94 -164 -196.5t-167 -204t-172 -198.5t-179 -179q-43 -35 -88 -64.5t-81 -47t-57.5 -17.5t-17.5 23.5z" />
<glyph unicode="Y" horiz-adv-x="2326" d="M28 1875q5 187 17 370q4 63 11 140t22.5 155.5t41 152.5t66.5 131.5t98.5 92t137.5 34.5q39 4 78 4q34 0 66 -3q71 -7 127.5 -33.5t92 -72.5t39.5 -114v-10q0 -51 -16 -155q-18 -116 -42 -271.5t-47.5 -335.5t-30.5 -358q-2 -57 -2 -113q0 -116 9 -223q15 -160 66 -273 q37 -86 100.5 -136t137.5 -61q18 -2 36 -2q56 0 113 24q76 32 139 112q47 59 88 135t70 162l51 1040q10 94 55 157.5t109.5 97.5t140.5 40q17 1 33 1q58 0 113 -17q69 -21 125.5 -69t83.5 -122q-25 -98 -32 -227t-24 -264q-20 -172 -35.5 -363.5t-32 -391.5t-35 -403.5 t-44.5 -400.5q40 1 81 1q71 0 143 -4q112 -7 218.5 -21.5t201.5 -35.5t171 -46q242 -70 472 -160t472 -195q125 -51 303 -119.5t385 -136t432.5 -122t446.5 -78.5q121 -12 237 -12q96 0 189 8q205 20 371.5 101t282.5 233.5t159 398.5q25 82 30 158.5t22 130t63 72.5 q18 8 44 8q43 0 111 -21q115 -39 177.5 -122t83.5 -191q13 -62 13 -128q0 -50 -7 -103q-17 -122 -60 -240.5t-109.5 -222t-146.5 -173.5q-115 -104 -257 -175t-299 -114t-320 -60q-133 -14 -262 -14q-30 0 -60 1q-240 4 -495 59t-510 140t-503.5 188.5t-476.5 202.5 q-156 70 -307 135t-301 131q-113 51 -241 109.5t-260 111.5t-264 97t-251 65q-29 -190 -69.5 -366.5t-97 -328t-131 -272.5t-173.5 -203q-117 -98 -224 -126q-60 -15 -118 -15q-46 0 -90 10q-113 27 -183.5 83.5t-106 132t-40.5 163.5v35q0 71 14 143q19 90 58 174t92 154 q111 147 246 255t283 194l39 739q-49 -109 -127 -185.5t-179.5 -120.5t-223.5 -56q-41 -3 -83 -3q-85 0 -176 15q-160 27 -270.5 109.5t-181 205.5t-106.5 280.5t-49 332.5q-9 127 -9 260q0 51 1 103zM830 -649v-14q0 -38 17 -68q20 -35 71 -47q25 -5 48 -5q54 0 99 29 q65 41 114.5 118t86.5 175.5t59.5 192.5t34.5 172t14 114q-16 -6 -56 -25.5t-94.5 -55t-114.5 -90t-116 -128.5q-18 -25 -44.5 -67.5t-52.5 -94t-44 -105.5t-22 -101z" />
<glyph unicode="Z" horiz-adv-x="1910" d="M-664 3043q12 80 45 140.5t81 90.5q41 25 93 25q9 0 17 -1q61 -5 133 -54q57 -37 116.5 -82t123.5 -92q166 -111 354 -198t390 -147.5t411 -90.5q184 -26 367 -25h49q78 0 160.5 -10t160.5 -53q6 20 9 -38v-16q0 -60 -18 -183q-22 -140 -80 -364.5t-173 -533.5 q119 0 227 1h42q82 0 148 -3q83 -4 133 -17.5t56 -39.5q12 0 -37 -9.5t-141 -22.5t-217 -25.5t-264 -18.5q-57 -150 -131 -320t-166 -362l6 -2q205 -86 369.5 -156.5t304 -130t260.5 -113t237 -104.5q125 -53 301 -125t383 -142.5t432 -130.5q224 -60 445 -86 q139 -17 273 -16q78 0 153 6q205 16 373 93t286.5 229t165.5 395q25 80 32 157t26 131q20 53 67 73q16 7 40 7q44 0 114 -24q113 -41 174 -126t79 -193q9 -53 10 -109q0 -59 -10 -121q-20 -122 -66 -240t-113.5 -220.5t-147.5 -169.5q-117 -102 -260 -171t-300 -109 t-321 -54q-114 -10 -226 -10q-48 0 -95 2q-240 8 -494 68.5t-508 149.5t-501.5 196.5t-470.5 209.5l-1192 566q-27 -41 -57.5 -78t-65.5 -72q-136 -134 -312 -194q-116 -39 -236 -40q-63 0 -126 11q-109 16 -184.5 61t-120.5 106.5t-59 135.5q-7 37 -7.5 73.5t7.5 72.5 q14 72 57 137t112 112q70 47 151 65q77 17 160 16h9q88 -1 181 -15.5t190 -28.5q76 104 158.5 258t162.5 334q-166 10 -305 44t-219 99q-66 57 -74 101q-2 12 -2 21q0 28 16 46q25 27 49.5 27t48 -13.5t46 -32t45.5 -28.5q92 -49 211 -75.5t250 -39.5q61 143 116.5 285.5 t101.5 267.5t78.5 223.5t49.5 153.5q-176 -55 -372 -83q-197 -29 -397 -31h-31q-185 -1 -367 21q-198 24 -375 73q-139 37 -259 89t-204 134t-124 200q-26 76 -26 171q0 53 8 112zM57 467q-1 -5 -1 -10q0 -31 32 -59q37 -32 135 -46q47 -8 89 -8q46 0 85 10q76 18 140 60 q31 20 59.5 49t56.5 63q-51 25 -105 47.5t-110 34.5q-50 11 -103 12h-13q-58 -2 -117 -24q-59 -23 -100.5 -57.5t-47.5 -71.5z" />
<glyph unicode="[" horiz-adv-x="966" d="M50 654q1 171 6 375t11.5 420t11.5 435t7 419t1 370t-9 290l-6 179q-2 41 -5.5 62.5t3 30.5t27 11t63.5 4l98 8q94 8 195.5 13.5t185.5 -3t141.5 -34t65.5 -76.5q2 -23 -12.5 -29t-51.5 -6t-99 3t-155 -1q-29 -2 -61.5 -4t-63.5 -6q14 -47 18.5 -111.5t4.5 -132t-3 -130 t-3 -107.5q-2 -92 -3 -260t-3 -379t-5 -447.5t-12.5 -463t-24 -425t-36.5 -335.5q92 6 186 9t172 -5.5t130.5 -33t60.5 -75.5q2 -23 -12.5 -29t-51.5 -6t-99.5 3t-154.5 -1q-41 -2 -96 -4t-120.5 -3t-138.5 -3t-146 -6q-10 61 -13.5 187t-2.5 297z" />
<glyph unicode="\" horiz-adv-x="1157" d="M36 2943q-9 70 7 111q29 63 75 100t97 30.5t98 -65.5t76 -188q27 -119 72 -286t102.5 -361.5t121 -404.5t124.5 -414.5t118.5 -392t100.5 -336t68.5 -248t25.5 -126.5q0 -63 -14 -84.5t-39 -7t-57.5 61.5t-69.5 119q-61 119 -135 293t-150.5 373.5t-153.5 409.5 t-143.5 400.5t-119.5 345t-82 244.5q-16 51 -43 127t-48.5 152.5t-30.5 146.5z" />
<glyph unicode="]" horiz-adv-x="1050" d="M72 3226q-4 23 10 28.5t52 5.5t100.5 -3t154.5 1q41 2 96.5 3t121 3.5t138 4.5t146.5 6q10 -61 13 -188.5t2 -297.5t-6 -373.5t-11 -420.5t-11.5 -435.5t-7.5 -418t-1 -369.5t10 -291l6 -178q2 -41 5 -62.5t-3 -30.5t-26.5 -11t-63.5 -4l-99 -9q-96 -8 -196.5 -13 t-184.5 3t-141 32.5t-65 78.5q-4 23 10 29t52 6t100.5 -3.5t154.5 0.5q29 2 61.5 4.5t63.5 6.5q-14 47 -18.5 111.5t-4.5 132t3.5 130t3.5 107.5q2 68 2 181.5t1 257t3 309t5 340t8 348.5t14.5 333.5t21.5 299t29 241.5q-92 -6 -186.5 -9t-172.5 5t-130 32.5t-60 76.5z" />
<glyph unicode="^" horiz-adv-x="1486" d="M54 2272.5q7 56.5 42 97.5l662 501q2 0 10 -5t31.5 -25.5t68.5 -63.5t122 -120l192.5 -192.5t281.5 -283.5q-2 -53 -8 -66.5t-22 -21.5q-16 -4 -39 -10t-52 8l-534 537l-545 -482q-78 -43 -126 -28.5t-69.5 56.5t-14.5 98.5z" />
<glyph unicode="_" horiz-adv-x="1857" d="M31 489q-6 31 1 47.5t25.5 24.5t47 10t63.5 4q145 4 316 13.5t343 14.5t334 3t290 -19.5t211 -54t97 -102.5q6 -35 -25.5 -44t-114.5 -8t-221 5t-343 -4q-94 -4 -199.5 -10.5t-201 -12.5t-169 -11t-102.5 -7q-47 -2 -106.5 9t-112.5 32.5t-91 50.5t-42 59z" />
<glyph unicode="`" horiz-adv-x="786" d="M55 2712q-2 43 33 81q37 45 80 48.5t88 -22.5t89 -73t84 -99t75 -102.5t59 -82.5q33 -49 60.5 -96.5t47 -85t27.5 -65.5t2 -38q-16 -16 -42.5 -12t-61.5 22.5t-77 48t-85 64.5q-37 31 -86 68.5t-99 79.5t-95 86t-71 89.5t-28 88.5z" />
<glyph unicode="a" horiz-adv-x="1556" d="M-70 671q-8 59 -9 122q1 71 11 148q20 146 68.5 297t125.5 293t173 258t210 193.5t239 98.5q40 5 76 5q74 0 130 -22q47 -16 88 -62q42 -46 60 -100q12 -34 11 -68q0 -20 -4 -39q-11 -52 -69 -79q-137 -59 -269 -174t-230 -262q-25 -37 -55.5 -93.5t-59.5 -121 t-51.5 -134t-30.5 -133.5q-4 -30 -4 -57q0 -31 5 -60q9 -54 44 -89q15 -14 34 -14q21 0 47 17q50 32 108 124q49 74 98 165t95 180t86 166t71 120q25 33 62 54q36 20 75 26q11 2 22 2q27 0 54 -10q37 -14 59 -50q4 -6 8 -11t5 -19.5t0 -42t-7 -76.5q-2 -8 -13 -67.5 t-22.5 -139.5t-17.5 -164q-3 -46 -3 -83q0 -31 2 -55q4 -54 28 -65q3 -1 7 -1q23 0 66 59t93.5 148t102.5 191.5t104.5 209t97.5 198.5q16 14 32.5 16.5t28.5 -4t18.5 -17.5t4.5 -24h-4q-41 -84 -86.5 -183t-95.5 -203.5t-103 -209t-109 -194.5q-45 -74 -96 -134.5 t-103.5 -101.5t-103.5 -55q-20 -5 -38 -5q-29 -1 -55 13q-42 22 -72.5 85t-43.5 175q-7 63 -7 126q0 26 1 52q4 90 6 166q-31 -53 -68.5 -128.5t-84.5 -154.5t-101.5 -154t-116.5 -127q-64 -52 -136 -72q-29 -8 -59 -7q-45 0 -93 17q-104 37 -161 127t-75 214z" />
<glyph unicode="b" horiz-adv-x="1536" d="M53 1020q-1 47 -1 90q0 65 2 122q3 95 5 140q6 346 29 686t33 678q0 117 37 160q30 35 76 35q11 0 22 -2q61 -12 98 -41t56.5 -69t26.5 -92t7 -110q1 -59 1 -115q0 -84 -2 -162q-3 -130 -9 -256t-15 -253t-18 -266q74 92 166 155.5t191 81.5q39 7 75 8q76 0 136 -34 q88 -50 146.5 -142t88 -214t36.5 -246q2 -41 2 -81q0 -80 -9 -154q-14 -112 -43 -181q59 70 120.5 155.5t119 176t107.5 177.5t87 158q18 33 40 47.5t34 9.5t12 -31t-24 -75q-49 -96 -111 -210.5t-136.5 -228.5t-161.5 -220.5t-187 -186.5q-100 -78 -210 -126 q-102 -44 -214 -44h-19q-72 4 -136.5 25t-115.5 61q-12 -25 -34.5 -40t-47.5 -21q-21 -5 -41 -5q-51 0 -86 38q-49 53 -77.5 147t-41 216t-14.5 239zM391 1060.5q0 -106.5 3 -233.5t14 -266q31 -29 69.5 -45t77.5 -16t75.5 17t65.5 54q31 41 55.5 100.5t44 131t32 152.5 t18.5 165q1 26 1 65v41q-1 68 -10.5 140t-28.5 136q-20 66 -54 100q-28 28 -70 28q-10 0 -20 -2q-54 -8 -129 -80q-43 -41 -80 -86t-60 -76q0 -53 -2 -136t-2 -189.5z" />
<glyph unicode="c" horiz-adv-x="1124" d="M-46 1086q14 150 57.5 293t111 271t152.5 219t181 137q69 33 138 33q27 0 55 -5q61 -12 102.5 -45t66 -75t34.5 -88q9 -42 9 -76v-7q-1 -37 -10 -60.5t-24 -21.5q-10 2 -14 5t-10 9q0 18 -1 42t-6 45.5t-16.5 37t-29.5 17.5h-5q-35 -1 -75 -47q-43 -50 -86 -135 t-83 -195.5t-71 -227t-48 -230.5q-16 -108 -16 -195v-10q1 -91 24.5 -150.5t76.5 -67.5q15 -2 29 -2q56 0 112 30q72 38 141.5 107.5t134 160.5t122 187.5t105.5 189.5t83 165.5t56.5 115.5t25.5 39q23 2 38 -14t7 -57q-18 -47 -52 -122t-79 -164t-99.5 -186.5 t-112.5 -188.5t-119.5 -170t-119.5 -130q-135 -118 -261 -150q-56 -15 -109 -14q-63 0 -121 22q-104 40 -178 148.5t-105 272.5q-16 89 -16 183q0 52 5 104z" />
<glyph unicode="d" horiz-adv-x="1443" d="M-36 976v30q0 100 18 202q20 116 60 225t97.5 195t130 143.5t158.5 69.5q33 4 67 4q17 0 35 -1q54 -3 103 -15t89 -34.5t62 -55.5q16 193 37 375t37 368l16 178q4 113 44 154q30 31 71 31q14 0 29 -4q61 -14 97 -43t55 -70q18 -40 23 -92q4 -37 4 -77q0 -16 -1 -32 q-12 -311 -51 -610t-64 -596q-6 -104 -18 -231q-9 -95 -9 -192q0 -32 1 -64q2 -86 13 -122t29.5 -36t41 27.5t49.5 68.5q39 72 85 158t92 176t90 177t79 161q12 6 25.5 6t25.5 -5t19.5 -15.5t5.5 -24.5q-31 -68 -71 -154t-85 -178t-93 -187t-95 -181q-49 -92 -93.5 -165 t-103.5 -118q-48 -39 -94 -39q-49 0 -94 45q-63 66 -92 151t-44 173q-55 -70 -108 -137.5t-113 -113.5q-61 -45 -134 -61q-22 -5 -47 -5q-55 0 -120 24q-86 41 -142 119.5t-85 180t-32 217.5zM334 805q8 -96 34 -138q27 -41 65 -45q5 0 9 -1q34 0 73 23q44 26 86 67t77 88 t55 84q-1 36 -1 71q0 76 6 148q8 108 14 207q4 76 9 151.5t11 149.5q-45 86 -96 93q-6 1 -13 1q-45 0 -89 -44q-52 -50 -98 -145.5t-80 -214t-51 -247.5q-13 -95 -12 -185q-1 -32 1 -63z" />
<glyph unicode="e" horiz-adv-x="1122" d="M-46 1084q14 148 56.5 287.5t111 264.5t152.5 217.5t180 141.5q80 41 162 40q17 0 33 -1q94 -10 164 -68q71 -57 105 -139q32 -75 31 -163v-16q-3 -96 -52 -184q-33 -59 -84 -105t-114.5 -83t-135 -62.5t-143.5 -42.5q-25 -111 -39 -217q-12 -93 -12 -170v-22 q2 -86 24.5 -141.5t73.5 -61.5q15 -2 29 -2q56 0 112 30q72 38 141.5 107.5t134 160.5t122 187.5t105.5 189.5t83 165.5t56.5 115.5t25.5 39q23 2 38 -14t7 -57q-18 -47 -52 -122t-79 -164t-99.5 -186.5t-112.5 -188.5t-119.5 -170t-119.5 -130q-135 -118 -261 -150 q-56 -15 -109 -14q-63 0 -121 22q-104 40 -178 148.5t-105 272.5q-16 89 -16 182q0 51 5 103zM446 1276q70 18 144 47t133 74t99 108.5t44 151.5v15q0 112 -116 145q-5 1 -11 1q-29 0 -62 -36q-40 -43 -81 -119t-80 -177t-70 -210z" />
<glyph unicode="f" horiz-adv-x="819" d="M-96 -20q0 23 3 153.5t14 375.5t31.5 608.5t55.5 852.5q8 86 51 145.5t105 86.5q52 23 112 23q13 0 26 -1q75 -6 149 -53q-12 -47 -26.5 -167t-29 -282.5t-28 -352t-25.5 -377t-22.5 -357.5t-16.5 -291q41 27 92 98.5t107.5 170t115 214t112.5 230t102.5 218t82.5 179.5 q35 6 45 5.5t33 -23.5q-18 -49 -57 -145.5t-93.5 -215.5t-119 -249t-133 -248.5t-136 -214t-128.5 -144.5q39 -49 79.5 -108.5t83.5 -130.5q53 -92 107.5 -194.5t101.5 -219.5q27 -66 54.5 -138.5t51 -151.5t41 -161t23.5 -164q2 -30 2 -63q0 -54 -6 -116q-10 -99 -45 -189 t-99.5 -159t-166.5 -87q-26 -5 -52 -5q-54 0 -110 20q-84 28 -170 110q-82 80 -137 191.5t-91 241.5t-53.5 273.5t-25.5 284.5t-9 276.5t-1 250.5zM299 66q2 -55 3 -139.5t3 -183.5t8.5 -208t18.5 -215q4 -41 17 -110.5t36 -148.5t51.5 -160t64.5 -144.5t75 -100.5 q35 -33 73 -33q7 0 13 1q43 8 65.5 59t29.5 122q4 41 4 85q0 31 -2 64q-5 77 -16 137q-12 63 -31.5 130.5t-40 129t-40 114t-33.5 89.5q-25 57 -51.5 113.5t-61 117.5t-80 130t-106.5 151z" />
<glyph unicode="g" horiz-adv-x="1554" d="M-70 671q-9 59 -9 122q0 71 11 148q19 146 68 297t126 293t173 258t210 193.5t239 98.5q40 5 76 5q74 0 130 -22q47 -16 88 -62t60 -100q11 -35 11 -68q0 -20 -4 -39q-11 -52 -69 -79q-137 -59 -269 -174t-230 -262q-25 -37 -55.5 -93.5t-59.5 -121t-51.5 -134 t-30.5 -133.5q-4 -29 -4 -57q0 -31 5 -60q9 -54 44 -89q14 -13 32 -13q22 0 48 18q49 34 109 122q49 72 95 160t90 176t86 169t83 138q43 61 106 63h8q59 0 109 -32q31 -20 48.5 -45t25.5 -52.5t10 -57.5t4 -62q4 -92 5 -216v-84q0 -86 -1 -178l6 9q43 59 93.5 148 t102.5 191.5t104.5 209t97.5 198.5q16 14 32.5 16.5t28.5 -4t18.5 -17.5t4.5 -24h-4q-80 -166 -193 -405.5t-289 -525.5q-2 -94 -5 -180.5t-6 -157t-5 -120.5t-2 -73q-6 -115 -14.5 -249t-24.5 -276.5t-43 -283.5t-70 -270t-104.5 -236.5t-147.5 -181.5q-92 -78 -177 -102 q-47 -12 -92 -12q-36 0 -71 8q-100 25 -160.5 96t-91 164.5t-34.5 193.5q-1 24 -1 48q0 71 9 130q25 162 84 317.5t121 284.5q53 111 113.5 212.5t119.5 189.5q51 74 100.5 136.5t92.5 109.5q-4 180 -7.5 357t-7.5 357q-31 -53 -68.5 -128.5t-84.5 -154.5t-101.5 -154 t-117 -127t-135.5 -72q-29 -7 -59 -7q-45 0 -93 17q-104 37 -161.5 127t-74.5 214zM312 -1162q3 -71 22.5 -123t62.5 -63q10 -2 19 -2q35 0 69 28q43 36 82 97.5t72 141t58.5 158.5t43 146.5t25.5 106.5q18 104 30.5 213t21.5 208t14.5 183t9.5 140q-66 -78 -115 -144.5 t-88 -126t-68.5 -115t-56.5 -110.5q-16 -35 -39.5 -86t-48.5 -111.5t-47.5 -126t-36.5 -129.5q-14 -59 -24 -136q-7 -59 -7 -114q0 -17 1 -35z" />
<glyph unicode="h" horiz-adv-x="1417" d="M-2859 -183q12 85 56 150.5t128 95.5q49 18 81 18.5t50.5 -14t27.5 -41t15 -59.5q27 -170 102 -303t179 -228t228 -148.5t247 -61.5q41 -3 82 -3q148 0 304 34q200 43 405.5 118.5t415.5 172t416 190.5t405.5 174t386.5 123q-3 61 -3 140v41q1 106 5 223.5t8 240.5 q4 124 6 236q1 76 1 142v64q-1 94 -9 156q-6 53 -16.5 87t-22.5 52.5t-26.5 23.5t-28.5 3q-23 -4 -49.5 -33t-51.5 -72q-27 -47 -51 -105t-44.5 -113.5t-34 -101.5t-15.5 -67l-6 -55q4 -147 4 -232t-6 -137q-6 -51 -23.5 -79.5t-50.5 -63.5q-24 -25 -60 -30q-5 -1 -10 -1 q-35 0 -90 27q-14 14 -25.5 30.5t-21.5 37.5q-35 68 -38 145.5t-13 155.5q-6 63 -6 141t3 157.5t8 154.5t9 134q16 307 49 595t58 579l16 178q4 113 44 154q29 30 69 30q15 0 31 -4q61 -14 97 -42.5t54.5 -69.5t23.5 -93q4 -37 4 -76q0 -16 -1 -32q-6 -133 -17.5 -301 t-26 -342t-30.5 -339t-31 -288q27 78 70 152.5t102 136.5q78 79 169 113q53 19 100 20q35 0 68 -10q77 -24 126 -113q44 -78 44 -217q0 -17 -1 -35l-8 -1206q55 10 101 12q15 1 32 0q33 0 70 -2q86 -6 133 -67q46 -62 62 -145q9 -48 10 -96q0 -36 -6 -73q-12 -86 -42 -141 q-37 -72 -101 -112t-157 -42h-10q-92 0 -162 34q-74 36 -127 93.5t-83.5 127t-41.5 134.5q-84 -31 -177 -73.5t-210.5 -101t-268 -135.5t-349.5 -175q-164 -80 -344 -164t-365.5 -153.5t-371 -116.5t-359.5 -53q-41 -2 -82 -2q-75 0 -151 7q-118 11 -233.5 43t-219.5 85 t-190 133q-57 53 -106.5 133t-82.5 171q-33 92 -47 188q-8 52 -8 100q0 42 6 81zM1026 14v-18q0 -32 5 -72q7 -51 21.5 -103t36 -98.5t50 -75t62.5 -34.5q6 -1 12 -1q29 0 61 23q25 18 41 55q17 36 25 80q6 31 6 63q0 13 -2 26q-4 45 -17.5 84t-41.5 65.5t-68 30.5 q-27 2 -52 2q-19 0 -37 -1q-42 -3 -102 -26z" />
<glyph unicode="i" horiz-adv-x="708" d="M-24 1060q0 114 4 202q2 55 10 115.5t17 136t16.5 169t7.5 215.5q37 29 91 31h9q51 -1 99 -21q54 -22 94.5 -68t50.5 -116q-12 -113 -28.5 -243.5t-28.5 -266.5q-11 -125 -11 -245q0 -11 1 -21q1 -131 24 -243q11 -28 27 -29q9 0 21 10q30 26 69 86q39 72 85 158t92 176 t90 177t79 161q12 6 25.5 6t25.5 -5t19 -15.5t5 -24.5q-31 -68 -70.5 -154t-84.5 -178t-93.5 -187t-95.5 -181q-49 -92 -93 -165t-103 -118q-48 -39 -94 -39q-49 0 -95 45q-66 74 -101 180q-34 106 -50 222q-15 112 -15 223q1 3 1 7zM28 2548q14 68 50 90q19 10 41 10 q17 0 36 -6q44 -14 87 -49t79 -83.5t52 -99.5q9 -24 8 -48q1 -20 -5 -40q-14 -43 -44.5 -75.5t-73.5 -50.5q-31 -12 -61 -12q-12 0 -24 2q-42 7 -77 43t-51 110q-22 98 -22 161q1 27 5 48z" />
<glyph unicode="j" horiz-adv-x="825" d="M-532 -1186q-2 25 -2 49q0 70 10 129q25 162 84 317.5t121 284.5q53 111 113.5 212.5t119.5 189.5q51 74 100 136.5t92 109.5q2 121 2 266q1 36 1 73q0 111 -1 226q-2 154 -5 303.5t-8 280.5t-13.5 231.5t-18.5 153.5q76 43 152 45h9q71 0 128 -30q60 -32 98.5 -94.5 t43.5 -146.5q0 -29 1 -91t4 -142t5 -169t5 -174t4 -158t1 -118l6 9q43 59 93.5 148t102.5 191.5t104 209t98 198.5q16 14 32.5 16.5t28.5 -4t18.5 -17.5t3.5 -24h-4q-80 -166 -192.5 -405.5t-288.5 -525.5q-2 -94 -5 -180.5t-6 -157t-5 -120.5t-2 -73q-6 -115 -14.5 -249 t-25 -276.5t-43 -283.5t-69.5 -270t-104.5 -236.5t-147.5 -181.5q-92 -78 -177 -102q-47 -12 -92 -12q-36 0 -71 8q-100 25 -160.5 96t-91 164.5t-34.5 193.5zM-421 -1162q3 -71 22.5 -123t62.5 -63q10 -2 19 -2q35 0 69 28q43 36 82 97.5t72 141t58.5 158.5t43 146.5 t25.5 106.5q18 104 30.5 213t21.5 208t14 183t10 140q-66 -78 -115 -144.5t-88 -126t-69 -115t-56 -110.5q-16 -35 -40 -86t-48.5 -111.5t-47 -126t-36.5 -129.5q-14 -59 -23 -136q-8 -59 -8 -114q0 -17 1 -35zM50 2514q13 69 50 89q19 10 41 10q17 0 36 -6q44 -14 87 -49 t79 -83t52 -99q9 -25 9 -49q0 -20 -6 -39q-13 -43 -43.5 -76t-73.5 -50q-30 -13 -60 -13q-12 0 -25 3q-42 7 -77 42.5t-51 109.5q-22 99 -22 163q0 27 4 47z" />
<glyph unicode="k" horiz-adv-x="1447" d="M-9 932q3 100 10 197.5t11 179.5q16 307 49 594.5t58 578.5l16 178q4 113 44 154q30 31 71 31q14 0 29 -4q61 -14 97 -43t54.5 -70t23.5 -92q4 -36 4 -76q0 -16 -1 -33q-12 -289 -46 -559t-61 -545q154 111 270.5 269.5t182.5 332.5q12 39 23.5 75t25.5 69 q14 41 36.5 60.5t48.5 19.5t53.5 -16.5t51.5 -47.5q52 -63 66 -123q8 -34 8 -67q0 -25 -5 -51q-11 -58 -44 -113t-76 -109q-57 -72 -125.5 -135t-144.5 -117.5t-157 -96.5t-161 -68q51 -10 101.5 -56.5t99.5 -109t98.5 -132t100.5 -130t104.5 -100.5t110.5 -42 q55 0 105.5 36t92 87t74.5 106.5t56 94.5q53 94 102 193.5t90 185.5q29 20 52.5 18t37.5 -31q-47 -111 -95 -208t-89 -191q-37 -86 -82 -177t-100.5 -172t-120 -141.5t-140.5 -82.5q-38 -11 -75 -11q-64 0 -126 33q-100 53 -188 160.5t-159.5 257t-120.5 313.5 q-8 -86 -14 -180q-4 -58 -5 -118q0 -37 2 -74q1 -24 1 -47q0 -45 -3 -85q-4 -60 -10 -108q-16 -117 -50 -165q-28 -40 -60 -40q-7 0 -13 2q-37 8 -81 42t-72 122q-25 82 -32 179q-5 68 -5 138q0 30 1 60z" />
<glyph unicode="l" horiz-adv-x="700" d="M-3 1062q9 128 15 247q16 307 49 594.5t58 578.5l16 178q4 113 44 154q30 31 71 31q14 0 29 -4q61 -14 97 -43t54 -70q19 -40 24 -92q4 -37 4 -77q0 -16 -1 -32q-12 -311 -51 -610t-64 -596q-6 -104 -18 -231q-9 -96 -10 -194q0 -31 1 -62q2 -86 13.5 -122t30 -36 t41 27.5t49.5 68.5q39 72 85 158t92 176t90 177t79 161q12 6 25.5 6t25.5 -5t19 -15.5t5 -24.5q-31 -68 -70.5 -154t-84.5 -178t-93.5 -187t-95.5 -181q-49 -92 -93 -165t-103 -118q-48 -39 -94 -39q-49 0 -95 45q-72 76 -101.5 177.5t-39.5 199.5q-7 74 -7 147q0 55 4 110z " />
<glyph unicode="m" horiz-adv-x="2240" d="M20 856q0 236 9.5 467t19.5 467q2 33 3 72t10.5 71.5t32 54t69.5 21.5q94 0 140 -35t64 -90q18 -52 18 -117v-7q-1 -70 -1 -140q0 -23 -1 -57.5t-1 -71.5t-1 -72t-1 -57q4 0 9 -1t9 -1q18 66 62.5 160t107.5 186q43 59 91.5 102t95.5 66q39 18 96 24q19 2 38 1 q38 0 77 -7q90 -18 128 -77.5t48 -138.5q6 -49 6 -101q0 -31 -2 -64q-5 -64 -5 -121q0 -19 1 -36q18 66 62 160t108 186q78 111 168 160q74 40 141 40q14 0 28 -2q79 -10 136 -79.5t72 -196.5q8 -73 8 -145q0 -69 -8 -139q-16 -142 -31 -289q-4 -45 -12.5 -117t-11.5 -144 q-1 -31 -1 -58q0 -38 2 -72q4 -58 24 -76q7 -7 17 -7q18 0 44 22q40 34 108 146q53 90 107.5 201t100.5 213.5t80 183t46 111.5q8 8 18 15.5t19.5 5t18.5 -16.5t17 -47q-18 -49 -47.5 -129t-69.5 -176t-88.5 -200.5t-103.5 -203.5q-45 -80 -96 -153.5t-103.5 -130 t-106.5 -89t-106 -32.5q-80 0 -123 54q-42 53 -60 143q-17 85 -16 191v13q1 114 7 231t12 231q3 57 3 107.5t-3 95.5q-6 89 -32.5 143.5t-84.5 54.5q-29 0 -65.5 -49.5t-73.5 -122t-69.5 -155.5t-53.5 -153q-12 -125 -15 -228t-5 -185t-5 -140.5t-16 -95.5 q-16 -51 -50 -76.5t-75 -25.5q-53 0 -88.5 25.5t-58.5 68.5t-35 97t-16 112q-1 12 -1 28q0 33 3 83q4 76 7 172t4 200v24q0 92 -7 173q-10 109 -38 181.5t-85 72.5q-29 0 -65.5 -49.5t-73.5 -122t-70 -155.5t-53 -153q-12 -125 -15.5 -228t-5.5 -185t-5 -140.5t-15 -95.5 q-16 -49 -49 -74.5t-70 -27.5h-6q-33 0 -67 20q-36 22 -62 72q-23 47 -36 102.5t-19 111.5t-8.5 111.5t-2.5 104.5z" />
<glyph unicode="n" horiz-adv-x="1497" d="M20 856q0 236 9.5 467t19.5 467q2 33 3 72t10.5 71.5t32 54t69.5 21.5q94 0 140 -35t64 -90q18 -52 18 -117v-7q-1 -70 -1 -140q0 -23 -1 -57.5t-1 -71.5t-1 -72t-1 -57q12 27 31.5 66.5t44 86t53.5 95.5t59 96q78 111 168 160q74 40 141 40q14 0 28 -2 q79 -10 136.5 -79.5t71.5 -196.5q8 -74 8 -147q0 -69 -7 -137q-15 -142 -32 -289q-4 -45 -12 -117t-11 -144q-1 -31 -1 -58q0 -38 2 -72q5 -58 25 -76q7 -7 16 -7q18 0 44 22q40 34 107 147q53 90 107.5 200.5t100.5 213t80 183t46 111.5q8 8 18.5 15.5t20.5 5.5t20.5 -16.5 t18.5 -47.5q-18 -49 -48 -129t-70 -176t-88 -200.5t-103 -202.5q-45 -80 -99.5 -154t-112 -130t-114.5 -90t-108 -34q-80 0 -122 54.5t-58 143.5q-14 75 -14 168v35q3 114 12 232q8 118 15 232q4 66 4 125q0 41 -2 78q-5 89 -31 143.5t-83 54.5q-29 0 -65.5 -49.5 t-73.5 -122t-70 -155.5t-53 -153q-12 -125 -15.5 -228t-5.5 -185t-5 -140.5t-15 -95.5q-16 -49 -49 -74.5t-70 -27.5h-6q-33 0 -67 20q-36 22 -62 72q-23 47 -36 102.5t-19 111.5t-8.5 111.5t-2.5 104.5z" />
<glyph unicode="o" horiz-adv-x="1220" d="M15 1038q1 96 13.5 204t41 215.5t74.5 209.5t114 186q46 57 100 82q51 24 104 24h4q54 -1 106.5 -23.5t99.5 -57.5q39 -31 51 -59.5t8 -57t-18.5 -61.5t-28.5 -72q-55 -154 -89 -263.5t-50.5 -190t-20.5 -138.5q-2 -29 -2 -56.5t2 -53.5q6 -109 30 -197t60 -134 q32 -41 73 -41q5 0 10 1q46 6 98 84q72 111 106.5 236.5t44.5 261.5q-11 -1 -21 -1q-60 0 -100 30q-47 36 -71 94q-25 60 -28 128q-1 14 -1 27q0 54 10 103q8 31 19.5 62.5t29 57t42 42t61.5 16.5q80 0 116.5 -44t48.5 -110q11 -57 12 -125q0 -11 -1 -22q-2 -80 -2 -150h9 q37 0 76 29q44 33 84 75t69.5 80.5t41.5 47.5q16 0 41 -11.5t25 -27.5q-35 -47 -73 -92.5t-81 -84t-92 -67.5t-106 -41q-14 -141 -55.5 -278.5t-116.5 -274.5q-45 -82 -101 -144q-58 -62 -126 -92q-59 -26 -129 -26q-12 0 -24 1q-85 5 -188 54q-94 47 -163.5 131t-104.5 213 q-13 49 -23 127q-9 71 -9 156v18zM870 1358q2 -47 19.5 -83t62.5 -38q4 53 8 115q2 40 2 94q0 30 -1 65q0 27 -6.5 47.5t-16.5 26.5t-22.5 -6t-24.5 -51q-7 -27 -15 -75q-7 -39 -7 -77q1 -9 1 -18z" />
<glyph unicode="p" horiz-adv-x="1673" d="M-33 -983q16 195 33.5 445.5t33 526t27 559t13.5 544.5v97q0 205 -6 382q-9 219 -31 366q57 39 139 45q23 10 41 0q92 -6 159.5 -66.5t84.5 -158.5q10 -10 10 -31q86 111 186.5 182.5t210.5 94.5q42 8 80 8q55 0 102 -17q80 -28 141.5 -89.5t103.5 -151.5t68 -193.5 t36 -213.5q8 -84 8 -164q0 -25 -1 -48q-3 -104 -18.5 -194t-39.5 -152q53 66 111.5 152t114.5 179t109.5 185.5t96.5 170.5q33 16 53 15t18 -54q-55 -113 -123.5 -240t-150.5 -252t-175 -237.5t-197.5 -198.5t-219.5 -135q-106 -45 -221 -45h-19q-76 4 -144.5 26.5 t-123.5 63.5q-16 -481 -54 -863t-79 -671q-6 -113 -52 -154q-34 -30 -80 -30q-17 0 -36 4q-72 14 -114 42.5t-63.5 69.5t-27.5 92q-5 39 -5 81q0 14 1 28zM471 1530q2 -106 4 -226t3 -245t1 -251v-243v-4q35 -33 78 -51t86 -20h6q40 0 78 18q41 20 72 65q33 47 60.5 116 t49 152t35.5 177t21 192q4 47 4 125t-10.5 161t-33 158t-62.5 114q-33 31 -79 31q-10 0 -20 -1q-59 -8 -143 -90q-47 -45 -85 -94t-65 -84z" />
<glyph unicode="q" horiz-adv-x="1681" d="M-80 720q-9 59 -9 122q0 71 11 148q19 147 68 297.5t126 292.5t173 258t209.5 193.5t238.5 98.5q41 5 78 5q73 0 129 -21q47 -16 88 -62.5t60 -101.5q11 -33 11 -66q0 -20 -5 -40q-11 -52 -68 -79q-137 -59 -269 -173.5t-231 -262.5q-25 -37 -55.5 -92t-59 -120.5 t-51 -135.5t-31.5 -135q-5 -32 -5 -61.5t5 -56.5q9 -54 46 -87q14 -13 32 -13q22 0 48 18q49 34 108 122q49 72 95.5 160t90.5 176t86 169t83 138q43 61 106 63q5 1 9 1q59 0 108 -33q41 -27 60.5 -66t25.5 -84q4 -30 4 -61.5t-4 -62.5q-8 -64 -14 -117q-23 -233 -37 -455 l-17 -252q41 27 92.5 98.5t107.5 170t114.5 214t113 230t102.5 218t83 179.5q35 6 45 5t32 -23q-18 -49 -57 -145.5t-93 -215.5t-118.5 -249t-133.5 -248.5t-136.5 -214t-128.5 -144.5q39 -49 80 -108.5t84 -130.5q53 -92 107 -194.5t102 -219.5q27 -66 54 -138.5t51 -151.5 t41 -161t24 -164q2 -29 2 -61q0 -55 -7 -118q-10 -99 -44.5 -189t-99 -159t-167.5 -87q-26 -5 -52 -5q-54 0 -110 20q-84 28 -170 110q-53 53 -95 118.5t-75 143.5q-37 86 -61.5 187.5t-40.5 235.5t-23 306q-4 132 -4 294v103q2 224 10.5 509.5t22.5 646.5 q-31 -53 -68.5 -129t-85 -155t-101.5 -153.5t-116.5 -127t-135.5 -71.5q-29 -8 -59 -8q-45 0 -93 17q-104 37 -161.5 127t-74.5 214zM1159 66q2 -55 3 -139.5t3 -183.5t8.5 -208t18.5 -215q4 -41 17.5 -110.5t36 -148.5t51 -160t64.5 -144.5t76 -100.5q34 -33 73 -33 q6 0 12 1q43 8 65.5 59t29.5 122q4 41 4 85q0 31 -2 64q-5 77 -15 137q-12 63 -32 130.5t-40.5 129t-39.5 114t-34 89.5q-25 57 -51.5 113.5t-61 117.5t-79.5 130t-107 151z" />
<glyph unicode="r" horiz-adv-x="989" d="M-216 1850q-2 26 -2 52q0 78 16 154q22 100 71 170q45 68 103 102q47 28 94 29q11 0 22 -2q57 -8 103.5 -64.5t66.5 -168.5q12 -72 15 -148q1 -28 2 -57q0 -47 -4 -91q-5 -72 -17 -136t-31 -111q18 -8 49 -2t66 17.5t70.5 24.5t66.5 19q24 4 44 4q27 0 48 -7 q37 -13 58.5 -43.5t31 -77t9.5 -101.5q0 -25 -5.5 -85t-12.5 -140t-15 -170t-15 -172q-6 -92 -8 -152v-20q0 -44 8 -62q10 -20 32 4.5t65 102.5q43 80 98 186.5t109.5 214t102.5 204.5t77 159q25 10 50.5 -1.5t21.5 -39.5q-25 -53 -66 -141.5t-89 -189.5t-98.5 -205.5 t-95.5 -192.5q-55 -119 -97 -197t-75 -125q-41 -61 -92 -87q-41 -21 -81 -20q-9 0 -18 1q-48 6 -89 41t-64 92q-23 59 -33 139t-13 170q-1 34 -1 68q0 57 3 117q5 96 12.5 188t15.5 176t14 151q-88 -35 -161 -35q-30 0 -58 6q-94 20 -159.5 86t-101.5 163t-43 203zM6 1862 v-12q0 -79 24 -146q26 -72 95 -92q18 25 30.5 74t17.5 108q4 42 4 86q0 18 -1 36q-2 62 -12 114.5t-28.5 86t-45.5 35.5q-35 -41 -58.5 -122.5t-25.5 -167.5z" />
<glyph unicode="s" horiz-adv-x="1071" d="M-126 674q22 80 85.5 146.5t155.5 97.5q139 46 290 46q41 0 82 -3q-66 213 -102.5 341t-54 200.5t-21.5 105t-4 57.5q0 14 -2 16l-10 -22q-23 -49 -45.5 -96t-43 -84t-35.5 -61.5t-22 -26.5q-16 -10 -42.5 -14.5t-45.5 -0.5q55 100 95.5 180t69 142.5t50 113t37.5 91.5 l6 20q31 174 99 263q51 68 113 68q20 0 40 -7q20 -6 25.5 -35t-2.5 -47q-19 -50 -19 -115q-1 -36 5 -76q16 -114 52 -251.5t81 -291t75 -307.5l19 -102q29 23 54.5 46.5t49.5 49.5q123 123 232 299q33 55 52 62.5t25.5 -13t-2 -58.5t-28.5 -73q-80 -129 -159 -229t-185 -186 q-6 -4 -12.5 -10.5t-14.5 -10.5l4 -70v-24q0 -60 -8 -115q-10 -65 -33 -123q-43 -113 -137 -176q-93 -63 -205 -85q-60 -12 -121 -11q-52 1 -106 9q-115 18 -201 71q-96 57 -126 138q-18 48 -18 95q-1 33 8 66zM20 644q-5 -18 -4 -35q0 -27 12 -53q20 -42 85 -64 q56 -20 107 -20q32 0 62 8q78 20 132 73q52 53 74 129q10 34 10 68q0 43 -15 88q-27 8 -65 12q-22 2 -46 2q-18 0 -37 -1q-44 -3 -90 -14.5t-87 -31.5q-49 -27 -87.5 -71t-50.5 -90z" />
<glyph unicode="t" horiz-adv-x="661" d="M-1030 2300q0 12 7 23.5t15 21.5q145 49 282.5 80t273 49t274.5 26t291 11q8 76 15 150.5t7 150.5q0 51 25.5 83t79.5 32q39 0 78.5 -16.5t72.5 -45.5t52.5 -66.5t19.5 -78.5q0 -51 -6 -102.5t-11 -102.5q287 10 557.5 57t534.5 166q72 33 153 77t155.5 99.5t138 121 t100.5 138.5q23 45 43 90.5t47 83t64.5 66.5t95.5 41q18 8 86 8q100 0 167.5 -44t109.5 -113.5t60.5 -155.5t18.5 -172q0 -158 -70.5 -268.5t-187.5 -185.5t-265.5 -117t-302 -63.5t-301 -27.5t-261.5 -6q-242 0 -478.5 15.5t-478.5 29.5q-16 -152 -34.5 -312.5t-34 -324.5 t-25.5 -325.5t-10 -311.5v-40.5t2 -43.5q6 -111 20.5 -216t46.5 -210q33 -93 33 -143q0 -15 -3 -27q-12 -44 -48 -44h-8q-43 5 -101.5 56.5t-107.5 133.5q-39 63 -67.5 138t-48 147.5t-30 139t-12.5 113.5q-2 23 -2 45.5v45.5q0 303 32 599t62 597q-43 2 -87 2h-87 q-129 0 -254 -6.5t-254 -22.5q-88 -10 -172 -24.5t-170 -39.5q-23 -4 -37 -7t-22 -3q-14 0 -28.5 6.5t-14.5 22.5z" />
<glyph unicode="u" horiz-adv-x="1454" d="M-4 907.5q0 108.5 8 208t12 162.5q2 55 10.5 115.5t17.5 136.5t16.5 169t7.5 216q37 29 91 31h9q50 0 98 -20q53 -22 94 -69t52 -116q-10 -98 -24.5 -210t-26 -229.5t-15.5 -234.5q-1 -33 -1 -66q0 -81 7 -157q2 -96 17.5 -129t39 -25t52 47t55.5 87t49.5 93.5t34.5 67.5 q59 117 97 217.5t61 186.5q12 115 19 191.5t12.5 128.5t7.5 88t4 69q20 14 52 24.5t64.5 13.5t63.5 -1.5t49 -16.5q66 -39 88 -162q-12 -113 -28.5 -243.5t-27.5 -266.5q-10 -124 -10 -244v-22q1 -131 23 -243q11 -28 27 -29q9 0 21 10q30 26 69 86q39 72 85 158t92 176 t90 177t79 161q12 6 25.5 6t26 -5t19.5 -15.5t5 -24.5q-31 -68 -71 -154t-85 -178t-93 -187t-95 -181q-49 -92 -93 -165t-104 -118q-48 -39 -94 -39q-49 0 -94 45q-47 51 -78 120.5t-49.5 148.5t-26.5 162t-10 163q-49 -100 -101.5 -214t-115.5 -212q-37 -57 -92 -99 q-56 -41 -115 -57q-27 -7 -54 -8q-31 0 -63 10q-58 18 -104 82q-47 70 -63.5 172.5t-16.5 211z" />
<glyph unicode="v" horiz-adv-x="1210" d="M-73 1816v34q0 65 3 100q34 46 100 64q39 11 81 11q28 1 56 -5q71 -12 133 -56.5t93 -124.5q10 -63 21.5 -156.5t24 -201t28.5 -221t35.5 -216t45 -185.5t58.5 -130q18 -25 41 -25q14 0 30 10q42 26 81 91q55 100 101 221t89 238q-72 70 -112 162q-42 92 -56 190 q-8 53 -7 104q-1 44 5 86q12 92 47 162q31 61 93 99q64 39 126 43q7 1 14 0q54 0 97 -31q49 -35 53 -121q0 -8 1 -17q0 -59 -13 -129q-14 -80 -35.5 -162.5t-45 -159.5t-38.5 -136q18 -16 45 -17t56.5 10t58.5 29.5t53 42.5q31 25 52.5 28t30.5 -7t2 -30.5t-34 -43.5 q-66 -63 -135 -98q-44 -22 -96 -22q-29 0 -61 7q-23 -66 -42.5 -119t-36 -98t-31.5 -86t-32 -82q-25 -68 -69.5 -154.5t-106 -163.5t-134.5 -130t-153 -55h-6q-84 0 -152 55q-70 57 -123.5 155.5t-92.5 226.5t-67 266t-44 277.5t-23.5 259t-8.5 211.5zM925 1631v-10 q0 -71 13 -133q14 -68 49 -104q8 25 22.5 75t30 112.5t30.5 129t28 124.5q5 26 5 46q-1 24 -7 42q-12 33 -33 43t-46.5 -3.5t-43.5 -51.5q-20 -49 -33.5 -122t-14.5 -148z" />
<glyph unicode="w" horiz-adv-x="1933" d="M36 1606q1 129 3 227q1 49 1 85t-1 58q39 38 107 48q22 3 44 4q46 0 96 -14q72 -20 131.5 -71t80.5 -131q4 -61 5 -150t2 -190.5t3 -207t10 -202.5t22.5 -177t39.5 -129q14 -29 36.5 -41.5t51 2t59.5 62.5t61.5 140.5t59.5 233.5t51 344q33 43 87 65q43 18 88 18 q12 0 24 -1q58 -6 113 -44t85 -116q-1 -10 -1 -25q-1 -32 5 -88q8 -82 23.5 -180t36 -192t43.5 -150q10 -29 26.5 -46t28.5 -15q12 0 29.5 28.5t45.5 95t68.5 177.5t100.5 274q-84 66 -140.5 156t-84 188.5t-27.5 195.5t27 177q33 92 101.5 146.5t160.5 54.5 q74 -2 116.5 -33t62.5 -80q18 -49 22 -109q1 -19 1 -39q-1 -41 -5 -83q-8 -62 -17.5 -118t-15.5 -95l-66 -250q20 -14 47 -12t55.5 16t56 38t50.5 52q27 31 49.5 38t33.5 -2t8 -32.5t-28 -52.5q-33 -37 -65.5 -66.5t-68.5 -51.5q-35 -22 -75 -32q-29 -8 -63 -7q-13 0 -27 1 q-29 -94 -67.5 -217t-85.5 -246.5t-100.5 -233t-110.5 -177.5q-78 -82 -148 -84h-7q-75 0 -127 42q-54 44 -94 120t-69.5 176t-60.5 213l-96 -176q-94 -197 -190.5 -290t-186.5 -103q-18 -2 -35 -2q-76 0 -134 44q-71 54 -119 154t-76.5 234.5t-44 281t-19.5 294.5 q-3 119 -3 226v52zM1630 1808q-2 -26 -3 -51q0 -41 6 -83q9 -68 33 -126.5t65 -95.5h12q41 156 59.5 256t26.5 164q2 21 2 39q1 49 -15 73q-22 34 -54 35h-4q-29 -1 -60 -23q-33 -24 -47 -65q-15 -55 -21 -123z" />
<glyph unicode="x" horiz-adv-x="1335" d="M-61 223q14 20 46.5 82t80 154t105.5 207.5t122 242.5q-55 131 -105.5 271.5t-90.5 272.5t-68.5 248t-44.5 200q29 53 93 81q58 25 124 24h14q74 -3 144.5 -40t113.5 -113q18 -63 45 -159.5t57 -212.5q78 160 140.5 287.5t97.5 205.5q31 18 51.5 17.5t38.5 -41.5h-4 q-18 -43 -48 -105.5t-66.5 -140.5t-81 -167t-91.5 -187q23 -82 47.5 -174.5t56.5 -183.5t72.5 -173t96.5 -143q18 -23 29.5 -28t19.5 -7h6q24 1 58 29q38 32 95.5 121.5t137.5 246t190 400.5q31 18 46.5 17t33.5 -42h-4q-109 -240 -194.5 -411t-152.5 -288.5t-116 -190 t-87 -113.5t-64.5 -59.5t-46.5 -28.5q-32 -15 -66 -15q-29 -1 -59 11q-64 26 -126.5 93.5t-124 169t-118.5 222.5q-57 -117 -109.5 -222.5t-95.5 -190.5t-73.5 -144.5t-45.5 -83.5q-16 -4 -31.5 -7t-27.5 1t-18 19t-2 48z" />
<glyph unicode="y" horiz-adv-x="1470" d="M-96 1042q8 150 21.5 297.5t27.5 294t14 293.5q39 31 99 33h9q55 0 109 -22q58 -23 103 -72t55 -123q-14 -117 -31.5 -249t-27.5 -269q-2 -20 -5.5 -79t-3.5 -131.5t4.5 -151.5t14.5 -142.5t29.5 -100t50.5 -26.5q49 20 133 160q41 70 97 182.5t128 292.5 q16 160 20.5 290t8.5 212q0 20 -1 39.5t-1 39.5q37 35 96 52q40 11 79 11q19 0 39 -3q58 -8 105.5 -46t59.5 -114q0 -6 2 -67.5t5 -154.5t6 -206t6 -223.5t5 -205.5t2 -155l6 9q43 59 93.5 148t102.5 191.5t104.5 209t97.5 198.5q16 14 32.5 16.5t28.5 -4t18.5 -17.5 t4.5 -24h-4q-80 -166 -193 -405.5t-289 -525.5q-2 -94 -5 -180.5t-6 -157t-5 -120.5t-2 -73q-6 -115 -14.5 -249t-24.5 -276.5t-43 -283.5t-70 -270t-104.5 -236.5t-147.5 -181.5q-92 -78 -177 -102q-47 -12 -92 -12q-36 0 -71 8q-100 25 -160.5 96t-91 164.5t-34.5 193.5 q-1 24 -1 48q0 71 9 130q25 162 84 317.5t121 284.5q53 111 113.5 212.5t119.5 189.5q51 74 100.5 136.5t92.5 109.5q-4 180 -7.5 376.5t-7.5 376.5q-31 -66 -71.5 -156.5t-96.5 -183.5q-37 -59 -78.5 -113.5t-91 -94t-106.5 -62.5q-47 -19 -101 -19q-12 0 -24 1 q-47 2 -90 29.5t-79 75.5t-60.5 115.5t-34.5 151.5q-7 92 -7 183q0 61 3 120zM228 -1162q3 -71 22.5 -123t62.5 -63q8 -1 16 -1q37 0 72 29q43 36 82 97.5t72 140t58.5 156.5t43 145.5t25.5 108.5q18 104 30.5 213t21.5 208t14.5 183t9.5 140q-66 -78 -115 -144.5t-88 -126 t-68.5 -115t-56.5 -110.5q-16 -35 -39.5 -86t-48.5 -111.5t-47.5 -126t-36.5 -129.5q-14 -59 -24 -136q-7 -59 -7 -114q0 -17 1 -35z" />
<glyph unicode="z" horiz-adv-x="1122" d="M-158 -1296q-1 11 0 22q0 128 70 289l2 -2q12 16 36.5 5t33.5 -32q-10 -29 -21.5 -79t-17.5 -107q-4 -43 -4 -86v-28q2 -58 19 -100t52 -62q18 -10 43 -10q23 0 51 9q104 31 183.5 123t134.5 212t90 249t53 234q19 109 31 227q8 78 8 155q0 41 -2 79q-6 114 -34.5 217.5 t-88 180t-155.5 119.5q-85 38 -203 38q-16 0 -33 -1q0 2 37 58.5t93 143.5t124 195.5t131.5 217t113.5 205t70 159.5q-51 -6 -85.5 -11t-66.5 -9t-68 -6t-91 -2h-6q-123 0 -233.5 58t-178.5 169q-51 80 -71 180q-13 54 -13 114v8q0 56 8 102q8 50 19.5 80t22.5 28 q16 2 39.5 -18.5t51 -51t58.5 -67.5t59 -66q63 -66 119 -100.5t110 -48.5q51 -14 101 -14h8q54 1 114 9.5t129 17.5t153 11q20 0 57 -1t71.5 -9t59.5 -30q20 -17 20 -44q0 -8 -2 -16q-18 -121 -78.5 -261t-134 -282.5t-149.5 -279t-125 -246.5q78 -14 148.5 -57t129 -105.5 t101.5 -141.5t65 -165q53 -166 55 -366q0 -11 1 -21q0 -189 -41 -383q-43 -205 -129 -400.5t-209 -353.5q-104 -133 -215 -202.5t-213 -77.5l-30 -2q-86 0 -162 42q-89 50 -150 152q-60 100 -66 236z" />
<glyph unicode="{" horiz-adv-x="806" d="M23 1556v13q0 6 16 31.5t37.5 60.5t40 71.5t22.5 65.5q16 90 24.5 210t11.5 246t3 245.5v212.5q0 47 12.5 110.5t42 119.5t76.5 96t117 40q16 0 48 -2t62.5 -9t54 -19.5t23.5 -32.5q0 -12 -15 -17.5t-28 -5.5q-25 0 -39 -41t-21 -105.5t-8 -140t0 -146.5t3 -125t2 -75 q0 -47 -2 -115.5t-8 -146.5t-19.5 -160t-36 -154.5t-56.5 -129t-81 -84.5q59 -35 98 -110t62.5 -172t35 -205.5t15.5 -213t4 -194.5v-148q0 -16 -3 -77.5t-1 -130t14.5 -123t40.5 -54.5q16 0 30.5 -3t14.5 -19q0 -18 -25.5 -30.5t-58 -20t-63.5 -10.5t-43 -3 q-78 0 -123 49.5t-68.5 126t-27.5 171t-1 184.5t9 166.5t6 119.5q0 180 -43 355.5t-155 328.5z" />
<glyph unicode="|" horiz-adv-x="573" d="M43 428q2 102 10 257t19.5 350.5t25 408.5t25.5 432t22.5 421t15.5 376t3 295q-2 131 30.5 199.5t80 87t101.5 -6t95 -80.5q27 -37 34 -106.5t4 -149.5t-11.5 -159t-12.5 -134q-8 -94 -23.5 -256.5t-37 -363.5t-47 -423t-54 -435t-59.5 -399.5t-61 -315.5 q-18 -78 -40 -131t-42.5 -72.5t-40 -2t-33.5 78.5q-6 27 -4 129z" />
<glyph unicode="}" horiz-adv-x="647" d="M23 119q0 16 14 19t31 3q29 0 41 54.5t14 123t-1 130t-3 77.5v147.5t4 195t15.5 213t35 205.5t62 172t98.5 110q-47 29 -81 85t-56.5 128.5t-36 154.5t-19.5 160t-8 146.5t-2 115.5q0 20 2 74.5t3 125.5t0 146.5t-8 140t-21.5 105.5t-38.5 41q-12 0 -27.5 5t-15.5 18 q0 20 23.5 32.5t54 19.5t62.5 9t48 2q70 0 117 -40t76.5 -96t42 -119.5t12.5 -110.5v-212t3 -246t11 -246t25 -210q4 -29 22.5 -65.5t40 -71.5t37.5 -60.5t16 -31.5v-13q-113 -154 -155.5 -328.5t-42.5 -355.5q0 -41 6 -118.5t9 -167.5t-1 -184.5t-27.5 -171t-68.5 -126 t-123 -49.5q-12 0 -43 3t-63.5 10.5t-58 20t-25.5 30.5z" />
<glyph unicode="~" horiz-adv-x="1146" d="M31 2601q-4 6 2 6q4 0 36.5 -12t82.5 -29q84 -31 164.5 -31t157.5 16.5t150.5 41.5t145.5 43q35 8 78 18t85 6t79 -30.5t59 -92.5q2 -6 -2 -6q-68 0 -143.5 -22.5t-156.5 -53t-165 -60.5t-166 -44t-159.5 -6t-149.5 55q-39 25 -63.5 70t-34.5 131z" />
<glyph unicode="&#xa1;" horiz-adv-x="657" d="M117 -1067q14 98 24.5 239.5t18.5 307.5t13 345t10 354t10.5 335t11.5 287t13 210t18 103q25 49 48 60.5t45.5 -7t42 -64.5t36.5 -114q25 -109 43 -264.5t31.5 -331.5t22.5 -360.5t14 -350t7 -299.5t2 -212q0 -45 1 -110t-3 -130.5t-18 -120.5t-47 -82q-53 -37 -119 -49 t-121 8.5t-87 79.5t-17 166zM117 1524q-4 45 9 94t42 87t72 54.5t98 -6.5q57 -23 85 -70t32 -102t-10.5 -111.5t-43 -96.5t-66.5 -55t-79 9q-16 8 -38.5 22.5t-44 38t-38 57.5t-18.5 79z" />
<glyph unicode="&#xa2;" horiz-adv-x="1124" d="M-47.5 1064q10.5 138 46.5 272t95.5 256t133 217.5t158.5 155.5t175 71q4 166 7 305t1 244q-2 135 20.5 203.5t57.5 87t73 -7t66 -81.5q18 -37 23.5 -107.5t3.5 -151.5t-8 -160.5t-8 -135.5l-19 -270q41 -43 59.5 -96.5t21.5 -99.5t-7 -76.5t-25 -28.5q-10 2 -14 5t-10 9 q0 31 -5 74t-30 59q-8 -129 -19.5 -274t-23.5 -298t-25.5 -307.5t-27.5 -301.5q76 57 149.5 149t139 195.5t122 209t98.5 189.5t66.5 135t28.5 47q23 2 38 -14t7 -57q-18 -47 -52 -122t-79 -164t-99.5 -186.5t-112.5 -188.5t-119.5 -170t-119.5 -130q-20 -16 -41.5 -31.5 t-44.5 -31.5q-14 -129 -27.5 -242t-27.5 -199q-12 -80 -27.5 -133t-31 -71.5t-28.5 -1t-24 78.5q-4 33 -2 161t11 327q-96 -31 -183.5 -16.5t-157 69.5t-118.5 148.5t-72 220.5t-12.5 265zM366.5 749.5q4.5 -79.5 28 -131t72.5 -59.5q10 -2 17.5 -2h17.5q10 223 20 475 t21 518q-39 -90 -73 -196.5t-58.5 -214t-37 -209t-8 -181z" />
<glyph unicode="&#xa3;" horiz-adv-x="741" d="M-4395 147q201 25 445.5 2.5t519 -70.5t570.5 -112.5t597 -122t601 -97.5t580.5 -42t535.5 45t467 165t375 316.5t259 499.5q47 154 46 308.5t-77 301.5q-31 59 -85 90t-109.5 37.5t-102.5 -12t-63 -55.5q-39 6 -61.5 24.5t-10.5 20.5q31 47 77 73.5t98 36t103.5 2 t92.5 -27.5q33 -16 68.5 -45t64.5 -76q45 -68 67.5 -155t27.5 -178t-3 -180t-24 -163q-66 -279 -199 -481.5t-317.5 -341.5t-413 -225t-485.5 -131.5t-534.5 -57.5t-559 -7t-560 21.5t-539.5 30t-494.5 14.5t-426.5 -24l211 350z" />
<glyph unicode="&#xa4;" horiz-adv-x="741" d="M-4395 147q201 25 445.5 2.5t519 -70.5t570.5 -112.5t597 -122t601 -97.5t580.5 -42t535.5 45t467 165t375 316.5t259 499.5q47 154 46 308.5t-77 301.5q-31 59 -85 90t-109.5 37.5t-102.5 -12t-63 -55.5q-39 6 -61.5 24.5t-10.5 20.5q31 47 77 73.5t98 36t103.5 2 t92.5 -27.5q33 -16 68.5 -45t64.5 -76q45 -68 67.5 -155t27.5 -178t-3 -180t-24 -163q-66 -279 -199 -481.5t-317.5 -341.5t-413 -225t-485.5 -131.5t-534.5 -57.5t-559 -7t-560 21.5t-539.5 30t-494.5 14.5t-426.5 -24z" />
<glyph unicode="&#xa5;" horiz-adv-x="1974" d="M-25.5 3122q17.5 116 91 215.5t225.5 176.5q72 37 138.5 45.5t118.5 -13t84 -76t34 -140.5q4 -139 -7 -299q8 -276 74 -534.5t185 -499.5q45 -94 99 -185.5t118 -179.5q29 78 56.5 158t51.5 162q125 414 178 835q8 123 16.5 231.5t20.5 213.5q14 131 59.5 204.5t109 96 t140 -2t154.5 -91.5q162 -143 232.5 -305t74.5 -338.5t-45 -363.5t-127 -380q-94 -231 -214 -451.5t-267 -431.5q0 -2 2 -2h-4l-19 -26q72 -18 116 -49t54 -78q4 -25 -10 -35t-49 -13t-94.5 0t-145.5 5q-53 -66 -113.5 -138.5t-127.5 -146.5q113 0 213 -6t179 -24.5 t128 -50.5t59 -83q6 -31 -20.5 -39t-94 -7t-180 5t-278.5 -2q-53 -2 -110.5 -5t-114.5 -7q-35 -33 -94.5 -85t-131 -110.5t-149.5 -114t-147.5 -93t-126 -49t-85.5 17.5q-25 25 -11.5 67.5t51.5 99t95.5 125t118.5 146.5q-49 20 -84.5 48t-40.5 59q-6 27 0.5 41t21.5 22 t37.5 10t49.5 4l164 9l18 24q41 61 82 126t82 132q-74 -4 -130 -9t-79 -7q-41 -2 -88 8t-90 30.5t-72.5 46t-33.5 54.5q-6 27 0 42t21 22.5t37.5 9.5t49.5 2q113 4 242 13t264 13q18 41 37.5 80t38.5 80q-154 111 -296.5 256.5t-265 312t-223 349t-168.5 364.5 q-49 135 -75.5 264t-9 245z" />
<glyph unicode="&#xa6;" horiz-adv-x="741" d="M-6715 -12q166 80 404.5 124t528 60t618.5 8t674 -31.5t696 -60.5t685 -79t638 -85t558 -80t444.5 -62.5t297.5 -33.5q289 -25 564 30.5t505.5 182.5t402.5 321.5t254 448.5q47 154 46 308.5t-77 301.5q-31 59 -85 90t-109.5 37.5t-102.5 -12t-63 -55.5q-39 6 -61.5 24.5 t-10.5 20.5q31 47 77 73.5t98 36t103.5 2t92.5 -27.5q33 -16 68.5 -45t64.5 -76q45 -68 67.5 -155t27.5 -178t-3 -180t-24 -163q-41 -178 -129.5 -335.5t-214 -291t-284.5 -241t-339 -183t-378 -118.5t-402 -49q-399 -14 -815 -9t-838 12t-848 9t-848 -20.5t-835.5 -76 t-813.5 -155.5z" />
<glyph unicode="&#xa7;" horiz-adv-x="741" d="M-6715 -12q166 80 404.5 124t528 60t618.5 8t674 -31.5t696 -60.5t685 -79t638 -85t558 -80t444.5 -62.5t297.5 -33.5q289 -25 564 30.5t505.5 182.5t402.5 321.5t254 448.5q47 154 46 308.5t-77 301.5q-31 59 -85 90t-109.5 37.5t-102.5 -12t-63 -55.5q-39 6 -61.5 24.5 t-10.5 20.5q31 47 77 73.5t98 36t103.5 2t92.5 -27.5q33 -16 68.5 -45t64.5 -76q45 -68 67.5 -155t27.5 -178t-3 -180t-24 -163q-41 -178 -129.5 -335.5t-214 -291t-284.5 -241t-339 -183t-378 -118.5t-402 -49q-399 -14 -815 -9t-838 12t-848 9t-848 -20.5t-835.5 -76 t-813.5 -155.5l156 522z" />
<glyph unicode="&#xa8;" horiz-adv-x="966" d="M76 2578q2 45 18.5 79t38 57.5t44 38t38.5 22.5q41 25 79 9.5t66.5 -55.5t43 -96.5t10.5 -111.5t-32 -102t-85 -70q-55 -23 -98 -6.5t-72 54.5t-42 87t-9 94zM512 2578q2 45 18.5 79t38 57.5t44 38t38.5 22.5q41 25 79 9.5t66.5 -55.5t43 -96.5t10.5 -111.5t-32 -102 t-85 -70q-55 -23 -98 -6.5t-71.5 54.5t-42 87t-9.5 94z" />
<glyph unicode="&#xa9;" horiz-adv-x="1705" d="M-168 1452q4 152 40 301.5t101.5 284.5t159.5 250.5t214 200.5t265.5 133.5t315.5 48.5q178 0 310 -41t226.5 -115t154.5 -177.5t95 -227t48.5 -264t13.5 -290.5q0 -117 -26 -261t-78 -292.5t-130 -289t-182.5 -247t-236.5 -167.5t-289 -53q-152 6 -286 55t-248 132 t-203 194.5t-150.5 244t-91 279.5t-23.5 301zM201 1220.5q8 -159.5 59 -302t147.5 -261t245.5 -196.5q164 -88 299 -67.5t241.5 111.5t185.5 233.5t130.5 300t77 311t25.5 264.5q0 147 -32 304t-104.5 287t-191.5 214t-293 84q-82 0 -157.5 -28t-144 -77t-130 -116.5 t-113.5 -147.5q-84 -129 -142 -280.5t-84.5 -312.5t-18.5 -320.5zM309 1381q13 132 52.5 258t101 238t138.5 191.5t164 120.5t175 25q55 -10 92 -39t59.5 -65.5t30.5 -77.5t8 -74t-8 -53.5t-20 -18.5q-8 2 -12.5 5l-10.5 7q0 14 -1 36t-6 40.5t-14 32.5t-26 16 q-35 4 -73.5 -40t-77.5 -118.5t-76 -173t-64.5 -200.5t-43 -202.5t-14.5 -180.5t23.5 -131t69.5 -57q86 -10 172 51t166 158.5t149.5 213t123 216t85 168t37.5 65.5q18 0 32.5 -14.5t8.5 -48.5q-25 -61 -80 -175t-128.5 -240t-156.5 -243t-163 -186q-123 -102 -237.5 -131 t-209 6t-162 130t-94.5 240q-23 119 -10 251z" />
<glyph unicode="&#xab;" horiz-adv-x="1486" d="M37 1540q0 4 4 12.5t24.5 32l61.5 70.5t114.5 127t184.5 200.5t270 292.5q53 2 66.5 -4t21.5 -22q6 -16 13.5 -39t-6.5 -51l-512 -557l505 -523q47 -78 36 -128t-53 -71.5t-98.5 -16.5t-99.5 38zM602 1540q0 4 4 12.5t24.5 32l61.5 70.5t115 127t184.5 200.5t270.5 292.5 q53 2 66 -4t22 -22q6 -16 13 -39t-7 -51l-512 -557l506 -523q47 -78 35.5 -128t-53.5 -71.5t-98 -16.5t-99 38z" />
<glyph unicode="&#xac;" horiz-adv-x="1705" d="M-164 1710q14 66 97 103.5t211 55t290 18.5t334 -4t343 -14t316 -14q35 -2 64 -4t47 -10t25.5 -24.5t1.5 -47.5q0 -2 -1 -2t-1 -2q25 -35 40 -73.5t15 -69.5q-2 -18 -5 -65.5t-6 -109t-5.5 -129t-2.5 -128.5q0 -131 9.5 -220t12.5 -142.5t-6 -75t-44 -17.5q-59 6 -98 50 t-63 113t-34 159t-13 188t-1 199.5t4 193.5q-41 -10 -80 -16t-74 -4q-29 2 -102.5 7t-168.5 11t-200.5 12.5t-199.5 10.5q-207 8 -344.5 4t-220 -5t-114.5 8t-26 44z" />
<glyph unicode="&#xad;" horiz-adv-x="1390" d="M78 1526q-8 55 18.5 66.5t73.5 15.5q100 6 217 15t234.5 14t228.5 2t198 -20t143 -54t66 -99q4 -33 -18 -42t-78.5 -8t-151 5t-233.5 -2q-66 -4 -137.5 -10t-136 -12t-114.5 -11.5t-71 -7.5q-33 -2 -73.5 9.5t-76.5 32t-61.5 48t-27.5 58.5z" />
<glyph unicode="&#xae;" horiz-adv-x="1705" d="M-168 1452q4 152 40 301.5t101.5 284.5t159.5 250.5t214 200.5t265.5 133.5t315.5 48.5q178 0 310 -41t226.5 -115t154.5 -177.5t95 -227t48.5 -264t13.5 -290.5q0 -117 -26 -261t-78 -292.5t-130 -289t-182.5 -247t-236.5 -167.5t-289 -53q-152 6 -286 55t-248 132 t-203 194.5t-150.5 244t-91 279.5t-23.5 301zM197.5 1267q3.5 -169 52.5 -320.5t147.5 -277.5t255.5 -208q104 -55 196.5 -65.5t172.5 14t148.5 79t127.5 127.5h-6q-74 2 -150.5 53.5t-144 126t-120 163t-76.5 161.5q-8 -59 -21.5 -116.5t-34 -103.5t-51 -74.5t-73.5 -28.5 q-31 0 -40.5 17t-7.5 41t10.5 48.5t14.5 40.5v-4q16 53 21.5 109.5t5.5 109.5q0 86 -17.5 175t-50.5 165l-27 53l-18 35q-27 66 9 96.5t102 28.5q53 -6 89 -33.5t58.5 -65.5t33.5 -83t15 -86l31 29q111 98 111 202q0 49 -23 93t-61.5 78t-89 53.5t-107.5 19.5 q-59 0 -115.5 -19.5t-109.5 -62.5q-66 -57 -123.5 -119.5t-102.5 -115.5q-35 -166 -31.5 -335zM283 1794q72 82 157.5 153.5t190.5 116.5v-2q88 45 194 45q88 0 152.5 -26.5t107.5 -71.5t63.5 -103.5t20.5 -121.5q0 -68 -21.5 -136.5t-63.5 -127t-103 -101.5t-143 -61 q59 -98 118.5 -180t128 -147.5t151.5 -114t187 -76.5q2 -2 7 -2q45 98 78.5 202.5t57 207t35 195.5t11.5 171q0 147 -32 304t-104.5 287t-191.5 214t-293 84q-82 0 -157.5 -28t-144 -77t-130 -116.5t-113.5 -147.5q-51 -78 -92 -163t-71 -177z" />
<glyph unicode="&#xb0;" horiz-adv-x="1019" d="M70 2626q0 96 25.5 190t76.5 169t127 121t174 46q117 2 190.5 -48t115.5 -126t56.5 -164t12.5 -164q-2 -86 -23.5 -169t-66.5 -148q-47 -70 -112.5 -111t-139.5 -51q-16 -2 -32.5 -3t-33.5 -1q-94 0 -163.5 39t-115.5 103.5t-68.5 146t-22.5 170.5zM367 2613 q0 -66 9 -124t29.5 -102t52 -68.5t77.5 -20.5q63 8 116 76q31 45 43.5 97t12.5 103q0 43 -4.5 94.5t-15.5 101.5t-27.5 96t-41.5 81q-29 41 -52 59.5t-46 18.5q-35 0 -62.5 -37t-48 -95.5t-31.5 -132t-11 -147.5z" />
<glyph unicode="&#xb1;" horiz-adv-x="741" d="M-6258.5 -1107q1.5 169 56 325.5t151.5 296t224 253t275.5 196.5t304.5 128q352 100 689 122t667 -6t657.5 -92.5t663.5 -136t683 -137t716 -94.5q289 -25 564 30.5t505.5 182.5t402.5 321.5t254 448.5q47 154 46 308.5t-77 301.5q-31 59 -85 90t-109.5 37.5t-102.5 -12 t-63 -55.5q-39 6 -61.5 24.5t-10.5 20.5q31 47 77 73.5t98 36t103.5 2t92.5 -27.5q33 -16 68.5 -45t64.5 -76q45 -68 67.5 -155t27.5 -178t-3 -180t-24 -163q-41 -178 -129.5 -335.5t-214 -291t-284.5 -241t-339 -183t-378 -118.5t-402 -49q-283 -10 -529 5t-468 42.5 t-427 62.5t-405.5 64.5t-405.5 48t-425 15.5t-464.5 -34.5t-527.5 -103.5q-168 -43 -315.5 -109.5t-260 -164t-183 -227.5t-85.5 -300q-6 -66 -2 -127t11.5 -121.5t16.5 -120t13 -118.5q2 -35 -4 -63.5t-26.5 -49t-59.5 -31t-102 -8.5q-88 0 -161 29t-131.5 79t-101.5 118.5 t-71 148.5q-63 174 -61.5 343z" />
<glyph unicode="&#xb4;" horiz-adv-x="720" d="M33 2177q-6 10 2 38t27.5 65.5t47 85t60.5 96.5q25 33 59.5 83t74.5 103t85 99t89 73t87 24t80 -51q31 -39 29 -83t-27.5 -88t-68.5 -89t-92.5 -86t-98.5 -78.5t-88 -68.5q-43 -35 -85 -64.5t-77 -48t-62.5 -22.5t-41.5 12z" />
<glyph unicode="&#xb5;" horiz-adv-x="4671" d="M42 1366q1 35 1 47q2 68 6 137.5t6 135.5q0 45 27 38q25 -4 32 -21t7 -40q0 -59 -2 -107.5t-6 -103.5q35 41 69 47q37 6 58.5 -17.5t31 -58t8.5 -72.5t-10 -61l49 70q4 41 8.5 82t4.5 82q6 6 17 6t23.5 -5t23 -14.5t12.5 -23.5q-8 -45 -13 -103q0 -6 -1 -27.5t0 -45 t5 -41t15 -13.5q8 6 26 33q8 14 18.5 37t26.5 57q4 33 4 58.5t3 42.5q0 4 -1.5 8t-1.5 8q8 6 19.5 9t24 2t21.5 -8t11 -23q2 -115 3 -181.5t1 -102.5v-47v-15q59 8 132 -9.5t151 -39t155.5 -36t147.5 2.5q45 10 73.5 39.5t31.5 89.5q2 12 1 24.5t1 21.5t8 13t22 0 q35 -8 44.5 -44t0.5 -77q-18 -57 -59 -90t-93 -46t-110.5 -10t-109.5 17q-53 14 -107.5 36t-107 41t-98.5 31.5t-83 10.5q-2 -35 -6 -75t-11 -78.5t-21.5 -71.5t-38.5 -54q-27 -23 -49.5 -24.5t-39.5 8.5q-16 12 -22 31.5t-5 42t6 43t11 37.5q16 41 41 76.5t53 68.5 q0 57 1 112.5t-1 110.5q-6 -12 -14 -30.5t-20 -36.5q-14 -23 -33 -41.5t-47 -16.5q-18 2 -33.5 21.5t-20.5 52.5v39q-31 -45 -70.5 -81t-86.5 -34q-33 2 -51 19q-6 -8 -17 -12q-23 -6 -34 18.5t-15 60t-3 70.5zM110 1350.5q-1 -43.5 3 -99.5q12 -10 29.5 -12t27.5 14 q12 16 19.5 46t11.5 65q0 10 -1 33.5t-6.5 43t-17.5 26t-37 -18.5q-10 -8 -17 -16.5t-11 -14.5q0 -23 -1 -66.5zM400 875.5q3 -15.5 18 -17.5q18 0 35 19q20 27 25 87t9 119q-49 -59 -71 -118q-2 -4 -7.5 -20.5t-8.5 -35t0 -34zM646 2358.5q13 11.5 30 -5.5q10 -4 16 -11 t13 -13q25 -18 46 -35t50 -27q23 -8 46 -10t52 4q2 12 2 25.5v25.5q4 68 11.5 131.5t23.5 112.5t44 78.5t75 29.5q4 0 28.5 -11t40.5 -23l6 -7l13 -8q23 -29 22 -98q0 -43 -12 -84t-30.5 -76t-42 -61.5t-48.5 -40.5l-16 -10q0 -4 -7.5 -46t-23.5 -135l4 -2q12 -2 22.5 -4 t22.5 -6q51 -16 101.5 -37.5t103.5 -44.5q37 -16 93.5 -38.5t121 -41t130 -28t122.5 2t98 47.5t56 107q4 16 5 34t5 29t14 16t35 -3q37 -14 49 -48t7 -74t-24.5 -77.5t-45.5 -60.5q-53 -47 -125 -62.5t-142 -11.5q-51 2 -107 14.5t-112.5 32t-112 43t-104.5 47.5l-131 62 q-33 16 -61.5 27.5t-55.5 23.5q-20 -49 -63 -79.5t-96 -30.5q-35 0 -57.5 15t-32 37.5t-3 48.5t26.5 46q29 25 69 28t81 3q4 6 7 27.5t5 46t3 35.5l1 30q-57 -6 -102 14q-29 10 -57.5 24.5t-55.5 35.5q-10 10 -18.5 16t-12.5 14q-16 25 -3 36.5zM684 1249q0 16 10.5 25.5 t16.5 13.5q12 6 23 -4t15.5 -26.5t0 -33t-22.5 -22.5q-23 -10 -34 9.5t-9 37.5zM686 1427q2 18 12.5 26.5t16.5 12.5q12 8 22.5 -2t14.5 -26.5t-0.5 -33t-20.5 -22.5q-23 -10 -35 9.5t-10 35.5zM735 2006.5q-2 -19.5 39 -19.5q33 0 54.5 15t33.5 38q-23 8 -49.5 11 t-48.5 -11q-27 -14 -29 -33.5zM856 1540q20 68 86 124t147.5 91t165.5 41t144 -31q4 -10 1 -18t-42 -16q-88 2 -164 -13q41 -41 47 -139q2 -10 2 -18.5v-18.5q35 10 64 6q10 -2 20 -1t21 -7q8 -8 8 -20.5t-23 -16.5h-37l-53 -6q-2 -72 -15.5 -144.5t-39.5 -131.5 q-6 -14 -19.5 -37t-30 -39.5t-35 -21.5t-32.5 18q37 72 49.5 154.5t1.5 164.5q-23 -10 -44 -22.5t-38 -22.5q-2 2 -1 10.5t12 18.5q20 25 67 49q-6 31 -15 59.5t-20 57.5l-28 59v2q-33 -16 -65 -36.5t-66 -47.5q-31 -31 -46.5 -52.5t-13.5 -21.5q-18 4 -8 27zM1026 2304 q55 45 78.5 106.5t23.5 129.5q0 20 -3 33.5t-7 25.5q-10 -10 -19.5 -23.5t-17.5 -27.5q-16 -41 -29.5 -91.5t-21.5 -109.5q-2 -10 -3 -21.5t-1 -21.5zM1141 2157q-2 30 3 65t17.5 71t34.5 64q20 27 45 26t45 -18q16 -14 13 -27.5t-11 -29.5q-23 -68 -29 -99.5t-4 -54.5 q2 -49 18.5 -73.5t39.5 12.5q33 45 35 107q-33 -2 -43.5 28.5t-4.5 55.5q4 14 10.5 27t22.5 13q18 0 26.5 -10t11.5 -24.5t2 -33t-1 -32.5q18 0 33.5 19.5t26.5 29.5q18 35 27 57.5t18 39.5l2 4q6 39 20 58t33 13q8 -4 6 -18q-6 -18 -2 -43t11 -55.5t17.5 -64.5t16.5 -66 l2 -23l25 20q10 10 19 20.5t18 25.5q2 59 8 115.5t12 115.5h-39q-55 0 -113 -6q-37 -4 -73 -12l-15 -5q-8 0 -8 9q0 4 4 8q66 23 123.5 30t122.5 7q2 16 4 33.5t2 33.5q0 25 23 25q16 0 33.5 -13.5t17.5 -31.5q0 -12 -2 -23.5t-4 -21.5q63 2 122.5 11t118.5 38 q31 14 67 37.5t52 56.5q10 20 19.5 38.5t36.5 25.5h20q43 0 60.5 -34t17.5 -73q0 -53 -34 -82t-81 -43t-100 -17t-90 -3q-53 0 -105.5 2t-105.5 6q-8 -66 -16.5 -139.5t-8.5 -139.5q0 -16 2 -18q0 -57 15 -94q8 -27 6 -38t-11.5 -10t-21.5 13t-25 31q-16 27 -25 61.5 t-9 54.5v19q-12 -16 -23.5 -29.5t-28.5 -26.5l-4 -4v-16q0 -20 -10 -55q-10 -25 -30.5 -39.5t-45 -19.5t-49 -1t-43.5 17q-23 12 -29 29.5t-2 35t18.5 32.5t35.5 21q27 14 79 11q-14 45 -22 73.5t-11 45t-3 24.5v12q0 2 -4 2l-3 -6l-9 -22.5t-13 -24.5l-4 -6q0 -2 -1 -2 t-1 -2l-31.5 -31.5t-38.5 -19.5q-6 -70 -39 -123q-20 -37 -50 -52.5t-75 7.5q-41 23 -59 73q-6 16 -8 46zM1330 2249q-1 -25 20 -27q0 12 1 25.5t-1 36.5q0 12 -4.5 16t-10.5 -14q-4 -12 -5 -37zM1359 1541.5q3 25.5 15 43.5q18 27 44 26t34 -48q4 -29 2 -58.5t-8 -50.5 q6 -4 21.5 3t27.5 9q23 4 31 -9t8 -36q0 -10 -3 -45t-7 -67q-2 -37 0 -47.5t20 20.5l58 115q23 57 60.5 103t84.5 54q29 4 43 -2q18 -6 28.5 -32.5t-12.5 -36.5q-57 -27 -100 -88q-6 -12 -15.5 -32t-16.5 -39t-8 -37.5t9 -29.5q14 -14 39 25q20 29 39 70t31 57 q10 12 27.5 16.5t27.5 -12.5q2 -2 3 -5t-3 -24q0 -2 -4 -25.5t-5 -48t2 -37.5t17 7t31.5 54t34.5 69l4 94q2 14 3 28.5t20 14.5q39 0 42 -24.5t3 -53.5v-51q4 10 14 30.5t22 39.5q31 45 67 40t42 -57q4 -29 1 -57.5t-7 -56.5q0 -14 -2 -38t-1 -40.5t9 -16.5t29 33 q10 18 20 40t21 44q4 33 17 67t32.5 58.5t42 38.5t45.5 10q18 -4 27.5 -16t12.5 -25.5t1 -24t-6 -10.5l-4 5q0 8 -1.5 17t-9.5 11q-14 2 -32.5 -35.5t-30.5 -85t-13.5 -88.5t19.5 -43q18 -2 35.5 9.5t34 32t31 44t26.5 45.5v9q2 23 6 51t4 78q16 10 41 1.5t29 -36.5 q-4 -47 -11.5 -103.5t3.5 -101.5q2 -12 22 14q16 29 35.5 67t34.5 66l2 3q18 33 27.5 53t15.5 37l2 4q12 76 49 65q6 -2 4 -16q-8 -23 1 -64t22.5 -89t25 -96t8.5 -81q55 -12 117 -40.5t124.5 -56.5t123.5 -48.5t117 -16.5q51 4 96 43t55 107q4 12 9.5 19t25.5 -1 q25 -10 33 -33.5t4 -51t-17.5 -55.5t-29.5 -44q-35 -31 -82 -43t-94 -10q-70 4 -148 34.5t-143 63.5q-80 41 -120 62.5t-75 33.5q-6 -45 -27.5 -69.5t-68.5 -24.5q-25 0 -47.5 9t-38.5 25.5t-22.5 39t4.5 47.5q14 37 59 10q8 16 34.5 18.5t43.5 -1.5q2 23 -5 51t-16.5 57 t-17.5 56.5t-8 48.5v2l-2 -5q-8 -16 -15.5 -30.5t-11.5 -20.5q-12 -27 -30.5 -65.5t-36.5 -73.5q-10 -18 -19.5 -32.5t-19.5 -24.5q-23 -16 -39 2q-18 23 -24.5 55.5t-8.5 65.5q-16 -31 -34.5 -58.5t-37.5 -44.5q-53 -47 -98 -28.5t-57 83.5q0 4 -1 9.5t-1 9.5l-19 -37 q-18 -33 -41.5 -57.5t-46.5 -24.5q-20 0 -28.5 18.5t-9.5 47t2 61.5t4 61.5t-3 47t-20 18.5q-6 0 -13.5 -10t-14.5 -24.5t-13 -31t-10 -30.5q-6 -49 -5.5 -82t-3.5 -47q-8 -20 -24.5 -21.5t-26.5 19.5q-10 18 -12 41.5t-2 44.5v24.5t2 24.5l-49 -94q-12 -23 -28.5 -39.5 t-32 -19.5t-27 9.5t-15.5 45.5q-2 16 -1 34.5t1 34.5q-10 -16 -22 -40.5t-28.5 -47t-36 -35t-44.5 -4.5q-31 10 -42 42t-7 73l-18 -37q-10 -25 -18.5 -40t-14.5 -25q-16 -25 -37.5 -21t-32.5 27q-12 39 -8 98t8 104q-8 -4 -15 -5t-13 -3l-27 -57l-18 4q8 14 14 28.5t12 26.5 q-23 6 -36 25.5t-18 45.5t-2 51.5zM1403 1511.5q0 -16.5 5 -31t17 -18.5q6 6 9.5 23.5t2.5 36t-5.5 33t-12.5 14.5q-6 -8 -11 -24.5t-5 -33zM1412 2092q-7 -24 22 -34q39 -12 65.5 13.5t13.5 62.5q-10 4 -31.5 4t-39.5 -10q-23 -12 -30 -36zM2054 2413q8 0 10 -3l23 -6 q45 -10 86 -0.5t78 15.5q20 2 44.5 4t37.5 -23q-29 0 -60.5 -8t-65.5 -15t-67 -9.5t-61 10.5q-20 8 -25 35zM2068 2198q8 0 31 -7q47 -10 87 -1.5t81 12.5q18 4 42 6t36 -21q2 0 2 -1t-2 -1q-27 0 -58.5 -8t-65.5 -15.5t-66.5 -9.5t-59.5 11q-10 4 -17 11t-10 24zM2085 2275 q-4 10 1 18.5t11 10.5q18 4 21 -20q2 -6 0.5 -14.5t-9.5 -10.5q-18 -2 -24 16zM2138 2341v2v2l29 2q2 0 2 -2v-2q0 -2 -1 -2t-1 -4q-2 -2 -2 -6l6 -101q0 -2 6 -8q2 0 2 -2v-4q0 -2 -2 -2l-29 -2q-2 0 -2 2v4v2q6 6 6 8l-10 101q0 6 -2 6q-2 2 -2 6zM2177 2343v4l2 2h19 q4 0 4 -2l32 -68l-4 56q0 8 -4 8q-2 0 -2 4v2q0 2 2 2l21 2v-2l2 -4l-2 -2q-6 -6 -2 -8l6 -115q0 -2 -2 -2l-2 -2q-2 2 -4 2l-45 90l6 -78q2 0 2 -2q0 -4 2 -6l2 -2v-4q0 -2 -2 -2h-21h-2v4q0 2 1 2t1 2q2 0 2 8l-6 101q-2 0 -2 2t-1 2t-1 4q-2 0 -2 2zM2273 2288 q-4 25 15 30q10 2 13 -5t5 -15q4 -8 3 -15.5t-11 -9.5q-16 -6 -25 15zM2402 2599q4 47 42 67.5t102 20.5q18 0 23 -14.5t5 -42.5q2 -90 9.5 -170t23.5 -153t45 -140.5t76 -134.5q8 31 9 69.5t0 77.5t-4 76t-3 65l-6 35q-4 20 11 32.5t36.5 12.5t43 -15t30.5 -54 q6 -31 15 -73t24 -85q-2 66 11 145.5t35.5 162.5t53.5 161t62.5 139.5t63.5 99t56 39.5q66 5 162 -67q18 -12 11 -32.5t-27 -43.5q-78 -94 -140.5 -180t-106.5 -175t-66.5 -186.5t-20.5 -214.5q-10 -10 -25 -6q-25 -2 -49.5 14.5t-49 44t-46 64.5t-39.5 76q6 -66 5 -131.5 t-24 -100.5q-6 0 -8 -2q-4 -4 -8 -4h-8q-43 0 -84 33t-79 86t-68.5 119.5t-53 136.5t-33 134.5t-6.5 113.5zM2439 1650q2 13 10 17q12 8 33 -8.5t27 -36.5q4 -14 -4 -26.5t-20.5 -16.5t-25 1t-16.5 28q-6 29 -4 42zM2559 1192.5q5 -16.5 17.5 -29t31 -18.5t36.5 -2 q41 10 41 92q-16 8 -32.5 8t-26.5 -14q10 -6 16 -18.5t5 -23.5t-7 -18.5t-21 -3.5q-8 2 -13 11.5t-5 17.5q-4 18 0 35q-29 23 -39 -2q-8 -18 -3 -34.5zM2617.5 1195.5q0.5 -13.5 10.5 -17.5q4 -2 6 3t1 12t-4 15.5t-10 10.5q-4 -10 -3.5 -23.5zM3015 1264.5q-2 23.5 5 44 t32 26.5q12 -8 4 -22q-8 -2 -11.5 -10.5t-0.5 -19.5t14.5 -22.5t33.5 -17.5q49 -10 95.5 9.5t77.5 68.5q20 33 25 64.5t-5 54t-35.5 34t-68.5 5.5q-74 -12 -114 13.5t-52 70.5q-12 47 4 106.5t57 106.5q35 41 84 60t109 3q86 -20 102 -98q51 27 120.5 33t119.5 2 q49 -4 98 -14.5t100 -20.5q47 -10 123 -22.5t156 -12.5q2 2 14 2l4 -2q49 2 94.5 12.5t79 32t53 57t19.5 88.5q2 16 0 32t0 27t10 16t31 3q35 -6 52.5 -33.5t19.5 -63.5t-8.5 -74t-30.5 -62q-31 -41 -76 -65.5t-96 -39.5q4 -4 5 -7t3 -7q4 -14 -4 -26.5t-20.5 -16.5t-25 1 t-16.5 28l-4 16q-12 -2 -26.5 -3t-28.5 -1q-4 -57 -11 -110.5t-12 -106.5q-2 -20 -4 -46t0 -50q0 -35 8.5 -32t18.5 19q10 18 22.5 42t22.5 46q0 6 2 9q0 23 5 51t5 78q14 10 39 1.5t29 -36.5q-4 -47 -11.5 -103.5t3.5 -101.5q2 -12 22 14q14 25 31.5 57.5t32.5 61.5 q4 27 14 51.5t27 44.5q18 23 40.5 22t41.5 -15q16 -12 12 -23.5t-8 -28.5q-23 -61 -29 -89.5t-4 -49.5q4 -45 18.5 -67.5t34.5 10.5q16 23 22.5 47t8.5 51q-29 -2 -38 25.5t-3 50.5q4 12 9 24.5t20 12.5q16 0 23 -9.5t10 -22.5t2 -28.5t-1 -29.5q16 0 35 20.5t23 24.5 q12 0 12 -7q-14 -18 -30.5 -35.5t-39.5 -21.5q-6 -53 -34 -110q-18 -35 -45 -48.5t-68 7.5q-41 18 -55 67q-6 20 -6 72q-10 -20 -19.5 -40t-19.5 -38t-18.5 -32.5t-20.5 -24.5q-23 -16 -39 2q-16 20 -23.5 52t-9.5 62q-8 -16 -15.5 -30.5t-15.5 -28.5q-10 -18 -18 -32.5 t-21 -24.5q-23 -16 -36 2q-14 14 -19.5 30.5t-9.5 34.5q-23 -29 -44.5 -51t-60.5 -8q-27 12 -39 42t-12 64l-28 -57q-10 -18 -19.5 -32.5t-21.5 -24.5q-18 -16 -37 2q-18 20 -24.5 53t-8.5 65q-10 -20 -20.5 -42.5t-22.5 -43.5q-16 -23 -42 -30.5t-44 16.5q-10 14 -13 34.5 t-3 42t2 42t2 33.5q2 23 6 50.5t4 76.5q16 12 40.5 3t28.5 -38q-4 -39 -10 -88t-2 -90q0 -29 6 -31t14.5 8t16.5 26.5t12 22.5q10 23 19.5 43.5t13.5 38.5l8 94q8 6 22.5 8.5t22.5 -3.5q8 -4 19 -31q-4 -47 -11.5 -103.5t3.5 -101.5q2 -12 22 14l49 95q10 45 33 79.5 t55 38.5q20 4 41 -1t31 -19q4 35 7 67.5t7 65.5q-72 6 -142.5 20.5t-135.5 28.5q-33 10 -64.5 16.5t-64.5 14.5q-37 8 -78 18.5t-81 16.5t-73.5 3t-54.5 -20q2 -25 -6 -51q-4 -10 -13.5 -24.5t-23.5 -16.5q-23 -4 -32 8.5t-7 30.5t12.5 35.5t28.5 23.5q-20 29 -66 34 t-83 -32q-33 -37 -49.5 -86t12.5 -81q12 -12 32.5 -20.5t51.5 -8.5q94 0 137 -38t47 -93q2 -31 -7 -66t-27.5 -66.5t-46 -58t-60.5 -41.5q-25 -12 -56.5 -18t-63.5 -5t-60.5 11t-49.5 31q-10 10 -19 32.5t-11 46zM3115 2228q2 25 7 56.5t5 85.5q16 12 44 1.5t32 -40.5 q-6 -51 -13 -114t3 -112q6 -14 26 17q14 23 30 53.5t30 58.5v4q4 68 11 131.5t13 129.5l2 36q2 27 10.5 35t20.5 6q29 -6 35 -25t6 -44q-4 -70 -12 -135.5t-12 -130.5q-2 -23 -6.5 -50.5t-0.5 -56.5q2 -39 9.5 -35t19.5 23q12 20 24.5 45.5t26.5 50.5q10 51 35 92t62 45 q23 4 46 -1t33 -21l17 166l4 36q2 27 9 35t22 6q29 -6 35 -25.5t4 -43.5q-2 -70 -11.5 -135.5t-13.5 -130.5q-2 -23 -4 -50.5t0 -56.5q0 -39 8 -35t21 23q16 31 36.5 71.5t36.5 73.5q6 4 12.5 1t6.5 -9q-14 -29 -34 -72t-42 -82q-10 -20 -19.5 -36.5t-23.5 -26.5 q-25 -14 -41 2t-21.5 33.5t-9.5 40.5q-25 -33 -50.5 -57.5t-65.5 -8.5q-27 14 -40.5 45t-15.5 68q-6 -16 -14 -30.5t-14 -29.5q-12 -20 -22.5 -36.5t-23.5 -26.5q-23 -16 -40 2q-16 16 -22.5 38.5t-10.5 45.5q-4 27 0 55q-10 -23 -19.5 -41t-19.5 -37q-10 -20 -19.5 -36.5 t-23.5 -26.5q-18 -14 -41 2q-29 35 -33 88t-4 96zM3126 2512q3 15 12 19q14 10 35.5 -8t27.5 -41q6 -16 -2 -29.5t-21.5 -18.5t-28 1t-20.5 31q-6 31 -3 46zM3312 1655q2 -8 10 -6q16 4 19 23.5t-1 35.5q-10 -2 -17 -12t-10 -21.5t-1 -19.5zM3344 1620q-4 8 4.5 9t24.5 1 l127 4q2 16 2 34v34q0 23 21 22q16 0 30.5 -12t14.5 -29v-24t-2 -25q59 0 101 -4t48 -18q4 -10 -29.5 -7t-121.5 -1q-6 -61 -14.5 -126t-8.5 -122v-17q2 -23 6 -44l8 -42q8 -25 5 -34t-12 -8t-20.5 11.5t-19.5 26.5q-16 25 -23 56.5t-10 50.5v18q0 59 7.5 115.5t13.5 114.5 q-31 -2 -57.5 -2h-34.5q-20 -2 -39 3t-21 15zM3504 2128q2 -33 13.5 -39t25.5 2t27.5 24.5t19.5 28.5q0 25 2 48.5t4 45.5l4 66q-16 29 -33.5 19.5t-33 -40t-23.5 -73.5t-6 -82zM3965 1300q2 -31 12 -35.5t23.5 3.5t26 22.5t18.5 24.5q0 23 1 44t3 42l4 59 q-14 25 -30.5 16.5t-30 -36t-21.5 -66.5t-6 -74zM4503 1411.5q-1 -22.5 17 -25.5q0 10 1 22.5t1 33.5q0 10 -5 14t-9 -12q-4 -10 -5 -32.5z" />
<glyph unicode="&#xb6;" horiz-adv-x="4671" d="M42 1366q1 35 1 47q2 68 6 137.5t6 135.5q0 45 27 38q25 -4 32 -21t7 -40q0 -59 -2 -107.5t-6 -103.5q35 41 69 47q37 6 58.5 -17.5t31 -58t8.5 -72.5t-10 -61l49 70q4 41 8.5 82t4.5 82q6 6 17 6t23.5 -5t23 -14.5t12.5 -23.5q-8 -45 -13 -103q0 -6 -1 -27.5t0 -45 t5 -41t15 -13.5q8 6 26 33q8 14 18.5 37t26.5 57q4 33 4 58.5t3 42.5q0 4 -1.5 8t-1.5 8q8 6 19.5 9t24 2t21.5 -8t11 -23q2 -115 3 -181.5t1 -102.5v-47v-15q59 8 132 -9.5t151 -39t155.5 -36t147.5 2.5q45 10 73.5 39.5t31.5 89.5q2 12 1 24.5t1 21.5t8 13t22 0 q35 -8 44.5 -44t0.5 -77q-18 -57 -59 -90t-93 -46t-110.5 -10t-109.5 17q-53 14 -107.5 36t-107 41t-98.5 31.5t-83 10.5q-2 -35 -6 -75t-11 -78.5t-21.5 -71.5t-38.5 -54q-27 -23 -49.5 -24.5t-39.5 8.5q-16 12 -22 31.5t-5 42t6 43t11 37.5q16 41 41 76.5t53 68.5 q0 57 1 112.5t-1 110.5q-6 -12 -14 -30.5t-20 -36.5q-14 -23 -33 -41.5t-47 -16.5q-18 2 -33.5 21.5t-20.5 52.5v39q-31 -45 -70.5 -81t-86.5 -34q-33 2 -51 19q-6 -8 -17 -12q-23 -6 -34 18.5t-15 60t-3 70.5zM110 1350.5q-1 -43.5 3 -99.5q12 -10 29.5 -12t27.5 14 q12 16 19.5 46t11.5 65q0 10 -1 33.5t-6.5 43t-17.5 26t-37 -18.5q-10 -8 -17 -16.5t-11 -14.5q0 -23 -1 -66.5zM400 875.5q3 -15.5 18 -17.5q18 0 35 19q20 27 25 87t9 119q-49 -59 -71 -118q-2 -4 -7.5 -20.5t-8.5 -35t0 -34zM646 2358.5q13 11.5 30 -5.5q10 -4 16 -11 t13 -13q25 -18 46 -35t50 -27q23 -8 46 -10t52 4q2 12 2 25.5v25.5q4 68 11.5 131.5t23.5 112.5t44 78.5t75 29.5q4 0 28.5 -11t40.5 -23l6 -7l13 -8q23 -29 22 -98q0 -43 -12 -84t-30.5 -76t-42 -61.5t-48.5 -40.5l-16 -10q0 -4 -7.5 -46t-23.5 -135l4 -2q12 -2 22.5 -4 t22.5 -6q51 -16 101.5 -37.5t103.5 -44.5q37 -16 93.5 -38.5t121 -41t130 -28t122.5 2t98 47.5t56 107q4 16 5 34t5 29t14 16t35 -3q37 -14 49 -48t7 -74t-24.5 -77.5t-45.5 -60.5q-53 -47 -125 -62.5t-142 -11.5q-51 2 -107 14.5t-112.5 32t-112 43t-104.5 47.5l-131 62 q-33 16 -61.5 27.5t-55.5 23.5q-20 -49 -63 -79.5t-96 -30.5q-35 0 -57.5 15t-32 37.5t-3 48.5t26.5 46q29 25 69 28t81 3q4 6 7 27.5t5 46t3 35.5l1 30q-57 -6 -102 14q-29 10 -57.5 24.5t-55.5 35.5q-10 10 -18.5 16t-12.5 14q-16 25 -3 36.5zM684 1249q0 16 10.5 25.5 t16.5 13.5q12 6 23 -4t15.5 -26.5t0 -33t-22.5 -22.5q-23 -10 -34 9.5t-9 37.5zM686 1427q2 18 12.5 26.5t16.5 12.5q12 8 22.5 -2t14.5 -26.5t-0.5 -33t-20.5 -22.5q-23 -10 -35 9.5t-10 35.5zM735 2006.5q-2 -19.5 39 -19.5q33 0 54.5 15t33.5 38q-23 8 -49.5 11 t-48.5 -11q-27 -14 -29 -33.5zM856 1540q20 68 86 124t147.5 91t165.5 41t144 -31q4 -10 1 -18t-42 -16q-88 2 -164 -13q41 -41 47 -139q2 -10 2 -18.5v-18.5q35 10 64 6q10 -2 20 -1t21 -7q8 -8 8 -20.5t-23 -16.5h-37l-53 -6q-2 -72 -15.5 -144.5t-39.5 -131.5 q-6 -14 -19.5 -37t-30 -39.5t-35 -21.5t-32.5 18q37 72 49.5 154.5t1.5 164.5q-23 -10 -44 -22.5t-38 -22.5q-2 2 -1 10.5t12 18.5q20 25 67 49q-6 31 -15 59.5t-20 57.5l-28 59v2q-33 -16 -65 -36.5t-66 -47.5q-31 -31 -46.5 -52.5t-13.5 -21.5q-18 4 -8 27zM1026 2304 q55 45 78.5 106.5t23.5 129.5q0 20 -3 33.5t-7 25.5q-10 -10 -19.5 -23.5t-17.5 -27.5q-16 -41 -29.5 -91.5t-21.5 -109.5q-2 -10 -3 -21.5t-1 -21.5zM1141 2157q-2 30 3 65t17.5 71t34.5 64q20 27 45 26t45 -18q16 -14 13 -27.5t-11 -29.5q-23 -68 -29 -99.5t-4 -54.5 q2 -49 18.5 -73.5t39.5 12.5q33 45 35 107q-33 -2 -43.5 28.5t-4.5 55.5q4 14 10.5 27t22.5 13q18 0 26.5 -10t11.5 -24.5t2 -33t-1 -32.5q18 0 33.5 19.5t26.5 29.5q18 35 27 57.5t18 39.5l2 4q6 39 20 58t33 13q8 -4 6 -18q-6 -18 -2 -43t11 -55.5t17.5 -64.5t16.5 -66 l2 -23l25 20q10 10 19 20.5t18 25.5q2 59 8 115.5t12 115.5h-39q-55 0 -113 -6q-37 -4 -73 -12l-15 -5q-8 0 -8 9q0 4 4 8q66 23 123.5 30t122.5 7q2 16 4 33.5t2 33.5q0 25 23 25q16 0 33.5 -13.5t17.5 -31.5q0 -12 -2 -23.5t-4 -21.5q63 2 122.5 11t118.5 38 q31 14 67 37.5t52 56.5q10 20 19.5 38.5t36.5 25.5h20q43 0 60.5 -34t17.5 -73q0 -53 -34 -82t-81 -43t-100 -17t-90 -3q-53 0 -105.5 2t-105.5 6q-8 -66 -16.5 -139.5t-8.5 -139.5q0 -16 2 -18q0 -57 15 -94q8 -27 6 -38t-11.5 -10t-21.5 13t-25 31q-16 27 -25 61.5 t-9 54.5v19q-12 -16 -23.5 -29.5t-28.5 -26.5l-4 -4v-16q0 -20 -10 -55q-10 -25 -30.5 -39.5t-45 -19.5t-49 -1t-43.5 17q-23 12 -29 29.5t-2 35t18.5 32.5t35.5 21q27 14 79 11q-14 45 -22 73.5t-11 45t-3 24.5v12q0 2 -4 2l-3 -6l-9 -22.5t-13 -24.5l-4 -6q0 -2 -1 -2 t-1 -2l-31.5 -31.5t-38.5 -19.5q-6 -70 -39 -123q-20 -37 -50 -52.5t-75 7.5q-41 23 -59 73q-6 16 -8 46zM1330 2249q-1 -25 20 -27q0 12 1 25.5t-1 36.5q0 12 -4.5 16t-10.5 -14q-4 -12 -5 -37zM1359 1541.5q3 25.5 15 43.5q18 27 44 26t34 -48q4 -29 2 -58.5t-8 -50.5 q6 -4 21.5 3t27.5 9q23 4 31 -9t8 -36q0 -10 -3 -45t-7 -67q-2 -37 0 -47.5t20 20.5l58 115q23 57 60.5 103t84.5 54q29 4 43 -2q18 -6 28.5 -32.5t-12.5 -36.5q-57 -27 -100 -88q-6 -12 -15.5 -32t-16.5 -39t-8 -37.5t9 -29.5q14 -14 39 25q20 29 39 70t31 57 q10 12 27.5 16.5t27.5 -12.5q2 -2 3 -5t-3 -24q0 -2 -4 -25.5t-5 -48t2 -37.5t17 7t31.5 54t34.5 69l4 94q2 14 3 28.5t20 14.5q39 0 42 -24.5t3 -53.5v-51q4 10 14 30.5t22 39.5q31 45 67 40t42 -57q4 -29 1 -57.5t-7 -56.5q0 -14 -2 -38t-1 -40.5t9 -16.5t29 33 q10 18 20 40t21 44q4 33 17 67t32.5 58.5t42 38.5t45.5 10q18 -4 27.5 -16t12.5 -25.5t1 -24t-6 -10.5l-4 5q0 8 -1.5 17t-9.5 11q-14 2 -32.5 -35.5t-30.5 -85t-13.5 -88.5t19.5 -43q18 -2 35.5 9.5t34 32t31 44t26.5 45.5v9q2 23 6 51t4 78q16 10 41 1.5t29 -36.5 q-4 -47 -11.5 -103.5t3.5 -101.5q2 -12 22 14q16 29 35.5 67t34.5 66l2 3q18 33 27.5 53t15.5 37l2 4q12 76 49 65q6 -2 4 -16q-8 -23 1 -64t22.5 -89t25 -96t8.5 -81q55 -12 117 -40.5t124.5 -56.5t123.5 -48.5t117 -16.5q51 4 96 43t55 107q4 12 9.5 19t25.5 -1 q25 -10 33 -33.5t4 -51t-17.5 -55.5t-29.5 -44q-35 -31 -82 -43t-94 -10q-70 4 -148 34.5t-143 63.5q-80 41 -120 62.5t-75 33.5q-6 -45 -27.5 -69.5t-68.5 -24.5q-25 0 -47.5 9t-38.5 25.5t-22.5 39t4.5 47.5q14 37 59 10q8 16 34.5 18.5t43.5 -1.5q2 23 -5 51t-16.5 57 t-17.5 56.5t-8 48.5v2l-2 -5q-8 -16 -15.5 -30.5t-11.5 -20.5q-12 -27 -30.5 -65.5t-36.5 -73.5q-10 -18 -19.5 -32.5t-19.5 -24.5q-23 -16 -39 2q-18 23 -24.5 55.5t-8.5 65.5q-16 -31 -34.5 -58.5t-37.5 -44.5q-53 -47 -98 -28.5t-57 83.5q0 4 -1 9.5t-1 9.5l-19 -37 q-18 -33 -41.5 -57.5t-46.5 -24.5q-20 0 -28.5 18.5t-9.5 47t2 61.5t4 61.5t-3 47t-20 18.5q-6 0 -13.5 -10t-14.5 -24.5t-13 -31t-10 -30.5q-6 -49 -5.5 -82t-3.5 -47q-8 -20 -24.5 -21.5t-26.5 19.5q-10 18 -12 41.5t-2 44.5v24.5t2 24.5l-49 -94q-12 -23 -28.5 -39.5 t-32 -19.5t-27 9.5t-15.5 45.5q-2 16 -1 34.5t1 34.5q-10 -16 -22 -40.5t-28.5 -47t-36 -35t-44.5 -4.5q-31 10 -42 42t-7 73l-18 -37q-10 -25 -18.5 -40t-14.5 -25q-16 -25 -37.5 -21t-32.5 27q-12 39 -8 98t8 104q-8 -4 -15 -5t-13 -3l-27 -57l-18 4q8 14 14 28.5t12 26.5 q-23 6 -36 25.5t-18 45.5t-2 51.5zM1403 1511.5q0 -16.5 5 -31t17 -18.5q6 6 9.5 23.5t2.5 36t-5.5 33t-12.5 14.5q-6 -8 -11 -24.5t-5 -33zM1412 2092q-7 -24 22 -34q39 -12 65.5 13.5t13.5 62.5q-10 4 -31.5 4t-39.5 -10q-23 -12 -30 -36zM2054 2413q8 0 10 -3l23 -6 q45 -10 86 -0.5t78 15.5q20 2 44.5 4t37.5 -23q-29 0 -60.5 -8t-65.5 -15t-67 -9.5t-61 10.5q-20 8 -25 35zM2068 2198q8 0 31 -7q47 -10 87 -1.5t81 12.5q18 4 42 6t36 -21q2 0 2 -1t-2 -1q-27 0 -58.5 -8t-65.5 -15.5t-66.5 -9.5t-59.5 11q-10 4 -17 11t-10 24zM2085 2275 q-4 10 1 18.5t11 10.5q18 4 21 -20q2 -6 0.5 -14.5t-9.5 -10.5q-18 -2 -24 16zM2138 2341v2v2l29 2q2 0 2 -2v-2q0 -2 -1 -2t-1 -4q-2 -2 -2 -6l6 -101q0 -2 6 -8q2 0 2 -2v-4q0 -2 -2 -2l-29 -2q-2 0 -2 2v4v2q6 6 6 8l-10 101q0 6 -2 6q-2 2 -2 6zM2177 2343v4l2 2h19 q4 0 4 -2l32 -68l-4 56q0 8 -4 8q-2 0 -2 4v2q0 2 2 2l21 2v-2l2 -4l-2 -2q-6 -6 -2 -8l6 -115q0 -2 -2 -2l-2 -2q-2 2 -4 2l-45 90l6 -78q2 0 2 -2q0 -4 2 -6l2 -2v-4q0 -2 -2 -2h-21h-2v4q0 2 1 2t1 2q2 0 2 8l-6 101q-2 0 -2 2t-1 2t-1 4q-2 0 -2 2zM2273 2288 q-4 25 15 30q10 2 13 -5t5 -15q4 -8 3 -15.5t-11 -9.5q-16 -6 -25 15zM2402 2599q4 47 42 67.5t102 20.5q18 0 23 -14.5t5 -42.5q2 -90 9.5 -170t23.5 -153t45 -140.5t76 -134.5q8 31 9 69.5t0 77.5t-4 76t-3 65l-6 35q-4 20 11 32.5t36.5 12.5t43 -15t30.5 -54 q6 -31 15 -73t24 -85q-2 66 11 145.5t35.5 162.5t53.5 161t62.5 139.5t63.5 99t56 39.5q66 5 162 -67q18 -12 11 -32.5t-27 -43.5q-78 -94 -140.5 -180t-106.5 -175t-66.5 -186.5t-20.5 -214.5q-10 -10 -25 -6q-25 -2 -49.5 14.5t-49 44t-46 64.5t-39.5 76q6 -66 5 -131.5 t-24 -100.5q-6 0 -8 -2q-4 -4 -8 -4h-8q-43 0 -84 33t-79 86t-68.5 119.5t-53 136.5t-33 134.5t-6.5 113.5zM2439 1650q2 13 10 17q12 8 33 -8.5t27 -36.5q4 -14 -4 -26.5t-20.5 -16.5t-25 1t-16.5 28q-6 29 -4 42zM2559 1192.5q5 -16.5 17.5 -29t31 -18.5t36.5 -2 q41 10 41 92q-16 8 -32.5 8t-26.5 -14q10 -6 16 -18.5t5 -23.5t-7 -18.5t-21 -3.5q-8 2 -13 11.5t-5 17.5q-4 18 0 35q-29 23 -39 -2q-8 -18 -3 -34.5zM2617.5 1195.5q0.5 -13.5 10.5 -17.5q4 -2 6 3t1 12t-4 15.5t-10 10.5q-4 -10 -3.5 -23.5zM3015 1264.5q-2 23.5 5 44 t32 26.5q12 -8 4 -22q-8 -2 -11.5 -10.5t-0.5 -19.5t14.5 -22.5t33.5 -17.5q49 -10 95.5 9.5t77.5 68.5q20 33 25 64.5t-5 54t-35.5 34t-68.5 5.5q-74 -12 -114 13.5t-52 70.5q-12 47 4 106.5t57 106.5q35 41 84 60t109 3q86 -20 102 -98q51 27 120.5 33t119.5 2 q49 -4 98 -14.5t100 -20.5q47 -10 123 -22.5t156 -12.5q2 2 14 2l4 -2q49 2 94.5 12.5t79 32t53 57t19.5 88.5q2 16 0 32t0 27t10 16t31 3q35 -6 52.5 -33.5t19.5 -63.5t-8.5 -74t-30.5 -62q-31 -41 -76 -65.5t-96 -39.5q4 -4 5 -7t3 -7q4 -14 -4 -26.5t-20.5 -16.5t-25 1 t-16.5 28l-4 16q-12 -2 -26.5 -3t-28.5 -1q-4 -57 -11 -110.5t-12 -106.5q-2 -20 -4 -46t0 -50q0 -35 8.5 -32t18.5 19q10 18 22.5 42t22.5 46q0 6 2 9q0 23 5 51t5 78q14 10 39 1.5t29 -36.5q-4 -47 -11.5 -103.5t3.5 -101.5q2 -12 22 14q14 25 31.5 57.5t32.5 61.5 q4 27 14 51.5t27 44.5q18 23 40.5 22t41.5 -15q16 -12 12 -23.5t-8 -28.5q-23 -61 -29 -89.5t-4 -49.5q4 -45 18.5 -67.5t34.5 10.5q16 23 22.5 47t8.5 51q-29 -2 -38 25.5t-3 50.5q4 12 9 24.5t20 12.5q16 0 23 -9.5t10 -22.5t2 -28.5t-1 -29.5q16 0 35 20.5t23 24.5 q12 0 12 -7q-14 -18 -30.5 -35.5t-39.5 -21.5q-6 -53 -34 -110q-18 -35 -45 -48.5t-68 7.5q-41 18 -55 67q-6 20 -6 72q-10 -20 -19.5 -40t-19.5 -38t-18.5 -32.5t-20.5 -24.5q-23 -16 -39 2q-16 20 -23.5 52t-9.5 62q-8 -16 -15.5 -30.5t-15.5 -28.5q-10 -18 -18 -32.5 t-21 -24.5q-23 -16 -36 2q-14 14 -19.5 30.5t-9.5 34.5q-23 -29 -44.5 -51t-60.5 -8q-27 12 -39 42t-12 64l-28 -57q-10 -18 -19.5 -32.5t-21.5 -24.5q-18 -16 -37 2q-18 20 -24.5 53t-8.5 65q-10 -20 -20.5 -42.5t-22.5 -43.5q-16 -23 -42 -30.5t-44 16.5q-10 14 -13 34.5 t-3 42t2 42t2 33.5q2 23 6 50.5t4 76.5q16 12 40.5 3t28.5 -38q-4 -39 -10 -88t-2 -90q0 -29 6 -31t14.5 8t16.5 26.5t12 22.5q10 23 19.5 43.5t13.5 38.5l8 94q8 6 22.5 8.5t22.5 -3.5q8 -4 19 -31q-4 -47 -11.5 -103.5t3.5 -101.5q2 -12 22 14l49 95q10 45 33 79.5 t55 38.5q20 4 41 -1t31 -19q4 35 7 67.5t7 65.5q-72 6 -142.5 20.5t-135.5 28.5q-33 10 -64.5 16.5t-64.5 14.5q-37 8 -78 18.5t-81 16.5t-73.5 3t-54.5 -20q2 -25 -6 -51q-4 -10 -13.5 -24.5t-23.5 -16.5q-23 -4 -32 8.5t-7 30.5t12.5 35.5t28.5 23.5q-20 29 -66 34 t-83 -32q-33 -37 -49.5 -86t12.5 -81q12 -12 32.5 -20.5t51.5 -8.5q94 0 137 -38t47 -93q2 -31 -7 -66t-27.5 -66.5t-46 -58t-60.5 -41.5q-25 -12 -56.5 -18t-63.5 -5t-60.5 11t-49.5 31q-10 10 -19 32.5t-11 46zM3115 2228q2 25 7 56.5t5 85.5q16 12 44 1.5t32 -40.5 q-6 -51 -13 -114t3 -112q6 -14 26 17q14 23 30 53.5t30 58.5v4q4 68 11 131.5t13 129.5l2 36q2 27 10.5 35t20.5 6q29 -6 35 -25t6 -44q-4 -70 -12 -135.5t-12 -130.5q-2 -23 -6.5 -50.5t-0.5 -56.5q2 -39 9.5 -35t19.5 23q12 20 24.5 45.5t26.5 50.5q10 51 35 92t62 45 q23 4 46 -1t33 -21l17 166l4 36q2 27 9 35t22 6q29 -6 35 -25.5t4 -43.5q-2 -70 -11.5 -135.5t-13.5 -130.5q-2 -23 -4 -50.5t0 -56.5q0 -39 8 -35t21 23q16 31 36.5 71.5t36.5 73.5q6 4 12.5 1t6.5 -9q-14 -29 -34 -72t-42 -82q-10 -20 -19.5 -36.5t-23.5 -26.5 q-25 -14 -41 2t-21.5 33.5t-9.5 40.5q-25 -33 -50.5 -57.5t-65.5 -8.5q-27 14 -40.5 45t-15.5 68q-6 -16 -14 -30.5t-14 -29.5q-12 -20 -22.5 -36.5t-23.5 -26.5q-23 -16 -40 2q-16 16 -22.5 38.5t-10.5 45.5q-4 27 0 55q-10 -23 -19.5 -41t-19.5 -37q-10 -20 -19.5 -36.5 t-23.5 -26.5q-18 -14 -41 2q-29 35 -33 88t-4 96zM3126 2512q3 15 12 19q14 10 35.5 -8t27.5 -41q6 -16 -2 -29.5t-21.5 -18.5t-28 1t-20.5 31q-6 31 -3 46zM3312 1655q2 -8 10 -6q16 4 19 23.5t-1 35.5q-10 -2 -17 -12t-10 -21.5t-1 -19.5zM3344 1620q-4 8 4.5 9t24.5 1 l127 4q2 16 2 34v34q0 23 21 22q16 0 30.5 -12t14.5 -29v-24t-2 -25q59 0 101 -4t48 -18q4 -10 -29.5 -7t-121.5 -1q-6 -61 -14.5 -126t-8.5 -122v-17q2 -23 6 -44l8 -42q8 -25 5 -34t-12 -8t-20.5 11.5t-19.5 26.5q-16 25 -23 56.5t-10 50.5v18q0 59 7.5 115.5t13.5 114.5 q-31 -2 -57.5 -2h-34.5q-20 -2 -39 3t-21 15zM3504 2128q2 -33 13.5 -39t25.5 2t27.5 24.5t19.5 28.5q0 25 2 48.5t4 45.5l4 66q-16 29 -33.5 19.5t-33 -40t-23.5 -73.5t-6 -82zM3965 1300q2 -31 12 -35.5t23.5 3.5t26 22.5t18.5 24.5q0 23 1 44t3 42l4 59 q-14 25 -30.5 16.5t-30 -36t-21.5 -66.5t-6 -74zM4503 1411.5q-1 -22.5 17 -25.5q0 10 1 22.5t1 33.5q0 10 -5 14t-9 -12q-4 -10 -5 -32.5z" />
<glyph unicode="&#xb7;" horiz-adv-x="636" d="M6 1669q4 68 29.5 117t61.5 83t73 55.5t61 33.5q66 35 127.5 12.5t106.5 -81t69.5 -140.5t16.5 -164t-52.5 -151.5t-136.5 -104.5q-90 -33 -158.5 -8t-114.5 80t-67.5 129t-15.5 139z" />
<glyph unicode="&#xb8;" horiz-adv-x="409" d="M-374 -223.5q-3 18.5 7.5 31t32.5 8.5q51 -6 123 2t139.5 31.5t117.5 63.5t56 99q4 45 -5 100.5t-20 112t-18.5 108.5t1 94t38 67.5t90.5 27.5q123 4 181.5 -62.5t40.5 -189.5q-10 -68 -39 -143.5t-74 -147t-106.5 -134t-139.5 -103.5t-170 -54.5t-198 13.5 q-25 14 -39.5 35.5t-17.5 40z" />
<glyph unicode="&#xbb;" horiz-adv-x="1540" d="M126 952q-11 49 36 127l506 523l-512 557q-14 29 -7 51t13 39q8 16 21.5 22t66.5 4q160 -174 270.5 -294.5t183 -200.5t114.5 -126t61.5 -69.5t24.5 -32t5 -12.5l-532 -639q-43 -33 -100.5 -38t-98.5 17.5t-52 71.5zM691 952q-11 49 36 127l506 523l-512 557 q-14 29 -7 51t13 39q8 16 21.5 22t66.5 4q160 -174 270.5 -294.5t183 -200.5t114.5 -126t61.5 -69.5t25 -32t5.5 -12.5l-533 -639q-43 -33 -100.5 -38t-98.5 17.5t-52 71.5z" />
<glyph unicode="&#xbf;" horiz-adv-x="1687" d="M48 -328.5q13 74.5 60.5 137t139.5 103.5q43 20 84 24.5t73.5 -9t52 -45.5t19.5 -83q12 -31 7 -80.5t3 -115.5q10 -98 53.5 -190.5t106 -168t134 -132t141 -82t127 -16.5t89 62.5t29.5 156.5t-51 267q-37 127 -103.5 259t-143 265.5t-152.5 262.5t-131.5 247.5t-81 224 t-0.5 191.5q16 55 39.5 105.5t54.5 90.5t71 64.5t89 28.5q55 4 75.5 -8t21.5 -45t-11.5 -88.5t-22.5 -134.5q-10 -68 15.5 -158t76 -194.5t119 -221.5t142 -239.5t148.5 -248.5t138 -247q115 -170 142.5 -319.5t-8 -270.5t-126 -211t-212 -141t-263 -60.5t-281 31.5 t-266.5 133t-219 246q-35 57 -71.5 132t-65.5 156t-42 164t0 157.5zM575 1552q-4 45 9.5 94.5t42 87.5t72 54.5t98.5 -6.5q57 -23 84.5 -70t32 -102.5t-10 -111.5t-43.5 -96t-66.5 -55.5t-78.5 9.5q-16 8 -39 22.5t-44.5 38t-37.5 57t-19 78.5z" />
<glyph unicode="&#xc0;" horiz-adv-x="2770" d="M-872 1839q-4 68 19.5 113t70.5 63.5t117.5 5t160.5 -64.5q74 -45 152 -91t164 -100q174 -100 363.5 -188t388 -162t401 -130t403.5 -93q78 287 142.5 579.5t120 555t104.5 476.5t96 343q63 248 227 344t424 63q70 -8 83 -99t-5 -232q-43 -371 -73.5 -711t-41 -657.5 t1 -616.5t54.5 -591t118.5 -580.5t192.5 -583.5q-4 -35 -17.5 -53.5t-32 -27.5t-38 -10t-37.5 1q-133 18 -251 150t-218 346t-181 491.5t-139 587.5q-74 -16 -159.5 -27.5t-177.5 -17.5q-49 -195 -106.5 -374t-121 -333t-133.5 -274.5t-145 -198.5q-66 -59 -125.5 -67.5 t-101.5 18t-63.5 78t-12.5 110.5q84 74 159.5 182.5t142 241.5t125 289t109.5 324q-160 2 -328.5 18t-339.5 44t-340 69t-329 92q-164 51 -310.5 113.5t-258 145.5t-180 190.5t-74.5 248.5zM1618 1151q66 -10 129.5 -14.5t126.5 -8.5q-35 211 -58.5 421t-35.5 421 q-35 -205 -76 -409.5t-86 -409.5zM1976 4217q-2 43 33 82q37 47 80 49t88 -23.5t89 -72.5t84 -99.5t75 -102.5t59 -83q33 -49 60.5 -96t47 -85t27.5 -66t2 -38q-16 -16 -42.5 -12t-61.5 22.5t-77 48t-85 64.5q-37 31 -86 69t-99 80t-95 86t-71 89t-28 88z" />
<glyph unicode="&#xc1;" horiz-adv-x="2770" d="M-872 1839q-4 68 19.5 113t70.5 63.5t117.5 5t160.5 -64.5q74 -45 152 -91t164 -100q174 -100 363.5 -188t388 -162t401 -130t403.5 -93q78 287 142.5 579.5t120 555t104.5 476.5t96 343q63 248 227 344t424 63q70 -8 83 -99t-5 -232q-43 -371 -73.5 -711t-41 -657.5 t1 -616.5t54.5 -591t118.5 -580.5t192.5 -583.5q-4 -35 -17.5 -53.5t-32 -27.5t-38 -10t-37.5 1q-133 18 -251 150t-218 346t-181 491.5t-139 587.5q-74 -16 -159.5 -27.5t-177.5 -17.5q-49 -195 -106.5 -374t-121 -333t-133.5 -274.5t-145 -198.5q-66 -59 -125.5 -67.5 t-101.5 18t-63.5 78t-12.5 110.5q84 74 159.5 182.5t142 241.5t125 289t109.5 324q-160 2 -328.5 18t-339.5 44t-340 69t-329 92q-164 51 -310.5 113.5t-258 145.5t-180 190.5t-74.5 248.5zM1618 1151q66 -10 129.5 -14.5t126.5 -8.5q-35 211 -58.5 421t-35.5 421 q-35 -205 -76 -409.5t-86 -409.5zM1792 3500q-6 10 2 38t27.5 65.5t47 85t60.5 96.5q25 33 59.5 83t74.5 103t85 99t89 73t87 24t80 -51q31 -39 29 -82.5t-27.5 -88t-68.5 -89.5t-92.5 -86t-98.5 -78.5t-88 -68.5q-43 -35 -85 -64.5t-76.5 -48t-62.5 -22.5t-42 12z" />
<glyph unicode="&#xc2;" horiz-adv-x="2770" d="M-872 1839q-4 68 19.5 113t70.5 63.5t117.5 5t160.5 -64.5q74 -45 152 -91t164 -100q174 -100 363.5 -188t388 -162t401 -130t403.5 -93q78 287 142.5 579.5t120 555t104.5 476.5t96 343q63 248 227 344t424 63q70 -8 83 -99t-5 -232q-43 -371 -73.5 -711t-41 -657.5 t1 -616.5t54.5 -591t118.5 -580.5t192.5 -583.5q-4 -35 -17.5 -53.5t-32 -27.5t-38 -10t-37.5 1q-133 18 -251 150t-218 346t-181 491.5t-139 587.5q-74 -16 -159.5 -27.5t-177.5 -17.5q-49 -195 -106.5 -374t-121 -333t-133.5 -274.5t-145 -198.5q-66 -59 -125.5 -67.5 t-101.5 18t-63.5 78t-12.5 110.5q84 74 159.5 182.5t142 241.5t125 289t109.5 324q-160 2 -328.5 18t-339.5 44t-340 69t-329 92q-164 51 -310.5 113.5t-258 145.5t-180 190.5t-74.5 248.5zM1596.5 3671q7.5 56 41.5 97l662 502q2 0 10 -5t31.5 -25.5t68 -63.5t122 -120 t193.5 -192.5t281 -283.5q-2 -53 -8 -66.5t-22 -21.5q-16 -4 -39 -10.5t-51 8.5l-535 536l-545 -481q-78 -43 -126 -28.5t-69.5 56.5t-14 98zM1618 1151q66 -10 129.5 -14.5t126.5 -8.5q-35 211 -58.5 421t-35.5 421q-35 -205 -76 -409.5t-86 -409.5z" />
<glyph unicode="&#xc3;" horiz-adv-x="2770" d="M-872 1839q-4 68 19.5 113t70.5 63.5t117.5 5t160.5 -64.5q74 -45 152 -91t164 -100q174 -100 363.5 -188t388 -162t401 -130t403.5 -93q78 287 142.5 579.5t120 555t104.5 476.5t96 343q63 248 227 344t424 63q70 -8 83 -99t-5 -232q-43 -371 -73.5 -711t-41 -657.5 t1 -616.5t54.5 -591t118.5 -580.5t192.5 -583.5q-4 -35 -17.5 -53.5t-32 -27.5t-38 -10t-37.5 1q-133 18 -251 150t-218 346t-181 491.5t-139 587.5q-74 -16 -159.5 -27.5t-177.5 -17.5q-49 -195 -106.5 -374t-121 -333t-133.5 -274.5t-145 -198.5q-66 -59 -125.5 -67.5 t-101.5 18t-63.5 78t-12.5 110.5q84 74 159.5 182.5t142 241.5t125 289t109.5 324q-160 2 -328.5 18t-339.5 44t-340 69t-329 92q-164 51 -310.5 113.5t-258 145.5t-180 190.5t-74.5 248.5zM1618 1151q66 -10 129.5 -14.5t126.5 -8.5q-35 211 -58.5 421t-35.5 421 q-35 -205 -76 -409.5t-86 -409.5zM1724 3936q-4 6 2 6q4 0 37 -12t82 -29q84 -31 165 -30.5t158 16.5t150.5 41t145.5 43q35 8 78 18.5t85 6.5t78.5 -31t59.5 -92q2 -6 -2 -6q-68 0 -143.5 -22.5t-156.5 -53.5t-165 -60.5t-166 -44t-160 -6.5t-149 56q-39 25 -63.5 69.5 t-35.5 130.5z" />
<glyph unicode="&#xc4;" horiz-adv-x="2770" d="M-872 1839q-4 68 19.5 113t70.5 63.5t117.5 5t160.5 -64.5q74 -45 152 -91t164 -100q174 -100 363.5 -188t388 -162t401 -130t403.5 -93q78 287 142.5 579.5t120 555t104.5 476.5t96 343q63 248 227 344t424 63q70 -8 83 -99t-5 -232q-43 -371 -73.5 -711t-41 -657.5 t1 -616.5t54.5 -591t118.5 -580.5t192.5 -583.5q-4 -35 -17.5 -53.5t-32 -27.5t-38 -10t-37.5 1q-133 18 -251 150t-218 346t-181 491.5t-139 587.5q-74 -16 -159.5 -27.5t-177.5 -17.5q-49 -195 -106.5 -374t-121 -333t-133.5 -274.5t-145 -198.5q-66 -59 -125.5 -67.5 t-101.5 18t-63.5 78t-12.5 110.5q84 74 159.5 182.5t142 241.5t125 289t109.5 324q-160 2 -328.5 18t-339.5 44t-340 69t-329 92q-164 51 -310.5 113.5t-258 145.5t-180 190.5t-74.5 248.5zM1618 1151q66 -10 129.5 -14.5t126.5 -8.5q-35 211 -58.5 421t-35.5 421 q-35 -205 -76 -409.5t-86 -409.5zM1956 3977q2 45 18.5 79t38 57.5t44 38t38.5 22.5q41 25 79 9.5t66.5 -55.5t43 -96.5t10.5 -111.5t-32 -102t-85 -70q-55 -23 -98 -6.5t-72 54.5t-42 87t-9 94zM2392 3977q2 45 18.5 79t38 57.5t44 38t38.5 22.5q41 25 79 9.5t66.5 -55.5 t43 -96.5t10.5 -111.5t-32 -102t-85 -70q-55 -23 -98 -6.5t-71.5 54.5t-42 87t-9.5 94z" />
<glyph unicode="&#xc5;" horiz-adv-x="2770" d="M-872 1839q-4 68 19.5 113t70.5 63.5t117.5 5t160.5 -64.5q74 -45 152 -91t164 -100q174 -100 363.5 -188t388 -162t401 -130t403.5 -93q78 287 142.5 579.5t120 555t104.5 476.5t96 343q63 248 227 344t424 63q70 -8 83 -99t-5 -232q-43 -371 -73.5 -711t-41 -657.5 t1 -616.5t54.5 -591t118.5 -580.5t192.5 -583.5q-4 -35 -17.5 -53.5t-32 -27.5t-38 -10t-37.5 1q-133 18 -251 150t-218 346t-181 491.5t-139 587.5q-74 -16 -159.5 -27.5t-177.5 -17.5q-49 -195 -106.5 -374t-121 -333t-133.5 -274.5t-145 -198.5q-66 -59 -125.5 -67.5 t-101.5 18t-63.5 78t-12.5 110.5q84 74 159.5 182.5t142 241.5t125 289t109.5 324q-160 2 -328.5 18t-339.5 44t-340 69t-329 92q-164 51 -310.5 113.5t-258 145.5t-180 190.5t-74.5 248.5zM1618 1151q66 -10 129.5 -14.5t126.5 -8.5q-35 211 -58.5 421t-35.5 421 q-35 -205 -76 -409.5t-86 -409.5zM1853 4098q0 96 26 190.5t77 169t127 120.5t174 46q117 2 190.5 -48t115.5 -125.5t56.5 -163.5t12.5 -164q-2 -86 -23.5 -169t-66.5 -149q-47 -70 -113 -110.5t-139 -51.5q-16 -2 -32.5 -3t-33.5 -1q-94 0 -163.5 39t-116 103.5t-69 146.5 t-22.5 170zM2150 4086q0 -66 9.5 -124.5t30 -102.5t52 -68.5t76.5 -20.5q64 8 117 76q31 45 43 97.5t12 103.5q0 43 -4 94t-15 101.5t-27.5 96.5t-41.5 81q-29 41 -52 59t-46 18q-35 0 -62.5 -36.5t-48 -95t-32 -132.5t-11.5 -147z" />
<glyph unicode="&#xc6;" horiz-adv-x="3997" d="M-1053 2400q-4 68 19.5 113t71 63.5t118 5t160.5 -64.5q74 -45 151.5 -91t163.5 -99q174 -100 363.5 -188.5t388.5 -162t401.5 -130t403.5 -93.5q78 287 142.5 580t119.5 555t104.5 476t96.5 343q63 248 227 344t424 63q70 -8 83 -99t-5 -232q-37 -315 -63.5 -595 t-41.5 -556q82 143 198 269t255 216t298 137t327 33q100 -10 192 -46t166 -97.5t125 -146.5t70 -193q20 -158 -22 -288t-129 -236.5t-210 -191.5t-261 -149.5t-284.5 -110.5t-281.5 -77q20 -35 75.5 -78t120.5 -69q45 -18 92.5 -30.5t84 -24t61 -20.5t26.5 -22 q4 -23 -23.5 -45t-71.5 -52t-97 -68.5t-102 -92.5q-59 -66 -95 -154.5t-49.5 -190t-5.5 -207t39 -201.5q45 -143 130 -225.5t192.5 -112t226.5 -11t231.5 75t209.5 145.5t159 201q35 6 56.5 0t32.5 -18t12 -27.5t-5 -27.5q-135 -238 -280.5 -400t-293 -260t-293 -137 t-280.5 -29q-207 16 -360.5 116.5t-268 254.5t-195.5 346.5t-140.5 393t-103.5 395t-85 352.5q-74 -16 -159.5 -27.5t-178.5 -17.5q-49 -195 -106 -374t-120.5 -332.5t-133.5 -274.5t-146 -199q-66 -59 -125 -67.5t-101 18.5t-63.5 78t-13.5 110q84 74 160 182.5 t142.5 241.5t125 289t109.5 324q-160 2 -329 18t-340 44t-340 69t-328 92q-164 51 -310.5 113.5t-258 145.5t-180.5 190.5t-75 248.5zM1438 1712q66 -10 129.5 -14t126.5 -8q-35 211 -58.5 420.5t-36.5 420.5q-35 -205 -75.5 -409.5t-85.5 -409.5zM2279 1585 q8 -106 19.5 -211.5t28.5 -210.5q45 66 99.5 127.5t117.5 118.5q-86 33 -150.5 78t-114.5 98zM2644 1894q168 18 303 62.5t241.5 103t183.5 126t128 134t76.5 126t27.5 100.5q2 63 -24.5 110t-80.5 67.5t-135 7.5t-188 -71q-106 -59 -207.5 -147t-178 -190.5t-118.5 -213 t-28 -215.5z" />
<glyph unicode="&#xc7;" horiz-adv-x="1710" d="M100.5 1547.5q-10.5 275.5 33.5 559t137.5 542.5t232.5 478t318 363.5t394 199t461 -13.5q205 -57 338 -183t174 -312q125 72 284 113.5t322.5 62t319.5 19.5t272 -15q248 -27 490 -75t502 -103q131 -29 318 -65t404.5 -64.5t449 -42t453.5 4t420.5 74t347 166 t234.5 281.5t84 420q8 82 0 158.5t0 133t51 85t154 14.5q119 -18 195.5 -89t116.5 -173.5t46.5 -226t-15 -247.5t-69 -238t-112.5 -196q-94 -123 -221 -219t-273.5 -166.5t-304.5 -116.5t-313 -71q-236 -39 -497 -29.5t-528.5 46t-530.5 93t-503 111.5q-166 41 -326.5 78 t-320.5 76q-117 29 -250 61.5t-270 61t-271 48t-254 20.5t-220.5 -21.5t-167.5 -77.5q8 -111 -29 -256q-8 -29 -24.5 -62.5t-41 -63.5t-55.5 -51.5t-67 -25.5q-78 -10 -123 17.5t-63.5 76t-11.5 108.5t34.5 117.5t74 102.5t105.5 62q-47 76 -126 110.5t-171 29.5t-189.5 -51 t-181.5 -132q-82 -88 -156.5 -238t-135 -338t-100.5 -401t-52 -428t9.5 -419t85 -373t173 -290t275.5 -170q80 -25 165 -11.5t169.5 76t166.5 178.5t156 298q33 12 55.5 10t36 -11t17.5 -23.5t0 -28.5q-76 -176 -169.5 -320.5t-215 -246t-278.5 -153.5t-359 -42 q-272 14 -471 136t-330 315.5t-199.5 445.5t-79 527.5zM611 -659.5q-3 18.5 7.5 31t32.5 7.5q51 -6 123 2.5t139.5 32t117.5 63.5t56 99q4 45 -5 100.5t-20 111.5t-18.5 108.5t1 94.5t38 67.5t91.5 27.5q123 4 181 -62.5t40 -189.5q-10 -68 -39 -143.5t-74 -147t-106.5 -134 t-139.5 -103.5t-170 -54.5t-198 13.5q-25 14 -39.5 35.5t-17.5 40zM1891.5 2759q9.5 -43 50.5 -37q37 6 57 37.5t29.5 77t8.5 93.5t-9 89q-49 -6 -84 -55.5t-48.5 -105.5t-4 -99z" />
<glyph unicode="&#xc8;" horiz-adv-x="1896" d="M-1935.5 2196.5q-30.5 119.5 6.5 285.5q18 78 55 135.5t86 84t110.5 17.5t129.5 -65q53 -43 110.5 -93t116.5 -103q137 -106 295 -198.5t330 -164.5t352 -124t364 -79q-31 150 -2 317t105 326.5t193.5 304t264 249t317.5 159.5t353 39q100 -10 192.5 -46t166 -97.5 t125 -146.5t69.5 -193q20 -158 -21.5 -288t-128.5 -236.5t-210 -191.5t-261.5 -149.5t-284.5 -110.5t-282 -77q20 -35 76 -78t121 -69q45 -18 92 -30.5t84 -24t61.5 -20.5t26.5 -22q4 -23 -23.5 -45t-71.5 -52t-97.5 -68.5t-102.5 -92.5q-59 -66 -95 -154.5t-49 -190 t-5 -207t39 -201.5q45 -143 130 -225.5t192.5 -112t226 -11t231.5 75t210 145.5t159 201q35 6 56 0t32.5 -18t12.5 -27.5t-5 -27.5q-158 -276 -329 -451.5t-342 -266.5t-337 -105.5t-311 31.5t-264 143.5t-197 231.5t-107.5 296t1 336t130 353t281.5 345 q-100 41 -173.5 96.5t-127.5 122.5q-178 -39 -372.5 -51t-392 2t-390 52.5t-366.5 99.5q-135 47 -252 108.5t-195 149.5t-108.5 207.5zM543 1894q168 18 303 62.5t241.5 103t183.5 126t128 134t76.5 126t27.5 100.5q2 63 -24.5 110t-81 67.5t-135 7.5t-187.5 -71 q-106 -59 -207.5 -147t-178.5 -190.5t-119 -213t-27 -215.5zM795 3953q-2 43 32 82q37 45 80 48t88 -22.5t89 -73t84 -99.5t75 -102t60 -83q33 -49 60.5 -96.5t47 -85t27.5 -65.5t2 -38q-16 -16 -43 -12t-62 22.5t-76.5 48t-84.5 64.5q-37 31 -86.5 68.5t-99.5 79.5 t-95 86.5t-70.5 89.5t-27.5 88z" />
<glyph unicode="&#xc9;" horiz-adv-x="1896" d="M-1935.5 2196.5q-30.5 119.5 6.5 285.5q18 78 55 135.5t86 84t110.5 17.5t129.5 -65q53 -43 110.5 -93t116.5 -103q137 -106 295 -198.5t330 -164.5t352 -124t364 -79q-31 150 -2 317t105 326.5t193.5 304t264 249t317.5 159.5t353 39q100 -10 192.5 -46t166 -97.5 t125 -146.5t69.5 -193q20 -158 -21.5 -288t-128.5 -236.5t-210 -191.5t-261.5 -149.5t-284.5 -110.5t-282 -77q20 -35 76 -78t121 -69q45 -18 92 -30.5t84 -24t61.5 -20.5t26.5 -22q4 -23 -23.5 -45t-71.5 -52t-97.5 -68.5t-102.5 -92.5q-59 -66 -95 -154.5t-49 -190 t-5 -207t39 -201.5q45 -143 130 -225.5t192.5 -112t226 -11t231.5 75t210 145.5t159 201q35 6 56 0t32.5 -18t12.5 -27.5t-5 -27.5q-158 -276 -329 -451.5t-342 -266.5t-337 -105.5t-311 31.5t-264 143.5t-197 231.5t-107.5 296t1 336t130 353t281.5 345 q-100 41 -173.5 96.5t-127.5 122.5q-178 -39 -372.5 -51t-392 2t-390 52.5t-366.5 99.5q-135 47 -252 108.5t-195 149.5t-108.5 207.5zM543 1894q168 18 303 62.5t241.5 103t183.5 126t128 134t76.5 126t27.5 100.5q2 63 -24.5 110t-81 67.5t-135 7.5t-187.5 -71 q-106 -59 -207.5 -147t-178.5 -190.5t-119 -213t-27 -215.5zM727 3246q-6 10 2 38t27.5 65.5t47 85t60.5 96.5q25 33 59.5 83t74.5 103t85 99.5t89.5 73t87.5 23.5t79 -50q31 -39 29 -83t-27.5 -88.5t-68.5 -89.5t-92.5 -86t-98.5 -78.5t-88 -68.5q-43 -35 -85 -64.5 t-76.5 -48t-62.5 -22.5t-42 12z" />
<glyph unicode="&#xca;" horiz-adv-x="1896" d="M-1978.5 2196.5q-30.5 119.5 6.5 285.5q18 78 55 135.5t86 84t110.5 17.5t129.5 -65q53 -43 110.5 -93t116.5 -103q137 -106 295 -198.5t330 -164.5t352 -124t364 -79q-31 150 -2 317t105 326.5t193.5 304t264 249t317.5 159.5t353 39q100 -10 192.5 -46t166 -97.5 t125 -146.5t69.5 -193q20 -158 -21.5 -288t-128.5 -236.5t-210 -191.5t-261.5 -149.5t-284.5 -110.5t-282 -77q20 -35 76 -78t121 -69q45 -18 92 -30.5t84 -24t61.5 -20.5t26.5 -22q4 -23 -23.5 -45t-71.5 -52t-97.5 -68.5t-102.5 -92.5q-59 -66 -95 -154.5t-49 -190 t-5 -207t39 -201.5q45 -143 130 -225.5t192.5 -112t226 -11t231.5 75t210 145.5t159 201q35 6 56 0t32.5 -18t12.5 -27.5t-5 -27.5q-158 -276 -329 -451.5t-342 -266.5t-337 -105.5t-311 31.5t-264 143.5t-197 231.5t-107.5 296t1 336t130 353t281.5 345 q-100 41 -173.5 96.5t-127.5 122.5q-178 -39 -372.5 -51t-392 2t-390 52.5t-366.5 99.5q-135 47 -252 108.5t-195 149.5t-108.5 207.5zM417 3470.5q7 56.5 42 97.5l661 501q2 0 10.5 -5t32 -25.5t67.5 -63.5t122 -119.5t193.5 -192.5t281.5 -284q-2 -53 -8.5 -66.5 t-22.5 -21.5q-16 -4 -38.5 -10t-51.5 8l-535 537l-544 -482q-78 -43 -126 -28.5t-69.5 56.5t-14.5 98.5zM500 1894q168 18 303 62.5t241.5 103t183.5 126t128 134t76.5 126t27.5 100.5q2 63 -24.5 110t-81 67.5t-135 7.5t-187.5 -71q-106 -59 -207.5 -147t-178.5 -190.5 t-119 -213t-27 -215.5z" />
<glyph unicode="&#xcb;" horiz-adv-x="1896" d="M-1935.5 2196.5q-30.5 119.5 6.5 285.5q18 78 55 135.5t86 84t110.5 17.5t129.5 -65q53 -43 110.5 -93t116.5 -103q137 -106 295 -198.5t330 -164.5t352 -124t364 -79q-31 150 -2 317t105 326.5t193.5 304t264 249t317.5 159.5t353 39q100 -10 192.5 -46t166 -97.5 t125 -146.5t69.5 -193q20 -158 -21.5 -288t-128.5 -236.5t-210 -191.5t-261.5 -149.5t-284.5 -110.5t-282 -77q20 -35 76 -78t121 -69q45 -18 92 -30.5t84 -24t61.5 -20.5t26.5 -22q4 -23 -23.5 -45t-71.5 -52t-97.5 -68.5t-102.5 -92.5q-59 -66 -95 -154.5t-49 -190 t-5 -207t39 -201.5q45 -143 130 -225.5t192.5 -112t226 -11t231.5 75t210 145.5t159 201q35 6 56 0t32.5 -18t12.5 -27.5t-5 -27.5q-158 -276 -329 -451.5t-342 -266.5t-337 -105.5t-311 31.5t-264 143.5t-197 231.5t-107.5 296t1 336t130 353t281.5 345 q-100 41 -173.5 96.5t-127.5 122.5q-178 -39 -372.5 -51t-392 2t-390 52.5t-366.5 99.5q-135 47 -252 108.5t-195 149.5t-108.5 207.5zM543 1894q168 18 303 62.5t241.5 103t183.5 126t128 134t76.5 126t27.5 100.5q2 63 -24.5 110t-81 67.5t-135 7.5t-187.5 -71 q-106 -59 -207.5 -147t-178.5 -190.5t-119 -213t-27 -215.5zM797 3625q2 45 18 79t37.5 57.5t44.5 37.5t39 23q41 25 79 9t66.5 -55.5t43 -96t10 -112t-32 -102t-84.5 -69.5q-55 -23 -98 -6.5t-72 54.5t-42 87t-9 94zM1233 3625q2 45 18.5 79t38 57.5t44 37.5t38.5 23 q41 25 79 9t66.5 -55.5t43 -96t10.5 -112t-32 -102t-85 -69.5q-55 -23 -98 -6.5t-72 54.5t-42 87t-9 94z" />
<glyph unicode="&#xcc;" horiz-adv-x="1083" d="M-174 3738q-2 43 33 82q37 45 80 48t88 -22.5t89 -73t84 -99.5t74.5 -102t59.5 -83q33 -49 60.5 -96.5t47 -85t27.5 -65.5t2 -38q-16 -16 -43 -12t-61.5 22.5t-76.5 48t-85 64.5q-37 31 -86 68.5t-99.5 79.5t-95.5 86t-70.5 89.5t-27.5 88.5zM-55.5 2804.5 q8.5 66.5 51.5 111.5t113.5 65.5t158.5 16.5q186 -12 305 -78.5t188.5 -174t100.5 -246.5t41 -297q14 -203 7 -438.5t-38.5 -474t-90 -466t-146.5 -417.5q-23 -47 -58.5 -114t-81.5 -135.5t-99.5 -127t-110 -86t-114.5 -16t-114 82.5q137 260 205 559t72 606.5t-52.5 609.5 t-166.5 570q-84 156 -142 295q-37 88 -28.5 154.5z" />
<glyph unicode="&#xcd;" horiz-adv-x="1083" d="M-147 3056q-6 10 2 37.5t27.5 65.5t47 85t60.5 96q25 33 59.5 83t74.5 103.5t85 99.5t89 72.5t87 23.5t80 -50q31 -39 29 -83t-28 -88t-69 -89t-92 -86t-98 -79t-88 -69q-43 -35 -85 -64.5t-77 -48t-62.5 -22t-41.5 12.5zM-55.5 2804.5q8.5 66.5 51.5 111.5t113.5 65.5 t158.5 16.5q186 -12 305 -78.5t188.5 -174t100.5 -246.5t41 -297q14 -203 7 -438.5t-38.5 -474t-90 -466t-146.5 -417.5q-23 -47 -58.5 -114t-81.5 -135.5t-99.5 -127t-110 -86t-114.5 -16t-114 82.5q137 260 205 559t72 606.5t-52.5 609.5t-166.5 570q-84 156 -142 295 q-37 88 -28.5 154.5z" />
<glyph unicode="&#xce;" horiz-adv-x="1083" d="M-404.5 3191.5q7.5 56.5 42.5 97.5l661 502q4 0 11 -5t31 -25.5t68 -63.5t121.5 -120t193.5 -192.5t282 -283.5q-2 -53 -8.5 -66.5t-22.5 -21.5q-16 -4 -39 -10.5t-51 8.5l-535 536l-545 -481q-78 -43 -126 -28.5t-69.5 56t-14 98zM-55.5 2804.5q8.5 66.5 51.5 111.5 t113.5 65.5t158.5 16.5q186 -12 305 -78.5t188.5 -174t100.5 -246.5t41 -297q14 -203 7 -438.5t-38.5 -474t-90 -466t-146.5 -417.5q-23 -47 -58.5 -114t-81.5 -135.5t-99.5 -127t-110 -86t-114.5 -16t-114 82.5q137 260 205 559t72 606.5t-52.5 609.5t-166.5 570 q-84 156 -142 295q-37 88 -28.5 154.5z" />
<glyph unicode="&#xcf;" horiz-adv-x="1083" d="M-106 3480q2 45 18 78.5t37.5 57t44 38t39.5 22.5q41 25 79 9.5t66.5 -55.5t43 -96t10 -111.5t-32 -102.5t-84.5 -70q-55 -23 -98.5 -6.5t-72 54.5t-42 87t-8.5 95zM-55.5 2804.5q8.5 66.5 51.5 111.5t113.5 65.5t158.5 16.5q186 -12 305 -78.5t188.5 -174t100.5 -246.5 t41 -297q14 -203 7 -438.5t-38.5 -474t-90 -466t-146.5 -417.5q-23 -47 -58.5 -114t-81.5 -135.5t-99.5 -127t-110 -86t-114.5 -16t-114 82.5q137 260 205 559t72 606.5t-52.5 609.5t-166.5 570q-84 156 -142 295q-37 88 -28.5 154.5zM330 3480q2 45 18.5 78.5t38 57t44 38 t38.5 22.5q41 25 79 9.5t66.5 -55.5t43 -96t10.5 -111.5t-32 -102.5t-85 -70q-55 -23 -98 -6.5t-72 54.5t-42 87t-9 95z" />
<glyph unicode="&#xd0;" horiz-adv-x="2807" d="M-101.5 1487q1.5 29 21.5 84q63 182 163.5 362.5t226.5 346t270.5 308t297 248t307 165t298.5 59.5q283 0 495.5 -82t362 -225.5t240 -336t127 -413.5t22.5 -458.5t-71.5 -472t-156 -453t-231.5 -400.5q-125 -174 -276.5 -305t-331.5 -201q-147 -59 -310 -69.5t-335 40 t-354.5 166t-370.5 308.5q-29 31 -26 55.5t28 34.5q-2 -2 42 -39t125 -90t192.5 -112.5t244.5 -106.5q84 322 104.5 602t-8.5 530q-98 -6 -171.5 -12t-102.5 -8q-41 -2 -88 8t-89 28.5t-72 42t-34 50.5q-12 49 22 58t87 13q94 4 199.5 10.5t216.5 10.5q-43 195 -117 377 q-31 63 -59.5 122.5t-53.5 114.5q-31 70 -23.5 124t42 90t92 53.5t129.5 15.5q109 -10 185.5 -56t129.5 -117t85 -160t50.5 -183t24.5 -188.5t8 -176.5v-14q152 -10 253 -43t118 -105q4 -25 -14.5 -32.5t-62.5 -10t-116.5 1t-177.5 3.5q-4 -150 -20.5 -316t-53 -326.5 t-98.5 -307t-156 -257.5q129 -20 243 -3.5t213 75.5t185 164.5t160 265.5q78 168 130 369.5t75 415.5t13.5 426t-55.5 400.5t-131 341t-214 247t-303 117t-400 -49.5q-137 -43 -261 -117.5t-228 -166.5q-102 -92 -188 -192.5t-157 -197t-123 -183.5t-87 -152.5t-51.5 -104.5 t-14.5 -39q-37 0 -35.5 29z" />
<glyph unicode="&#xd1;" horiz-adv-x="2629" d="M-47 2580q0 47 54 90.5t127 75t145.5 51t111.5 19.5q96 0 180 -62.5t155 -172t128 -259t100 -321.5q45 240 86 409.5t80 288.5t78 194t80 124q70 84 155 139t175 79.5t181 19.5t175 -42q147 -68 240.5 -208t144.5 -333.5t64.5 -428t2 -490.5t-43 -523t-73.5 -524 t-86 -494t-81 -433q-20 -123 -37.5 -221.5t-32.5 -178.5q-68 -53 -136 -53t-128 35q-51 31 -93 80t-71.5 104.5t-46 108.5t-16.5 92q0 55 14 174t34.5 280.5t45.5 355.5t46.5 402.5t35.5 420.5t16 409t-13 369t-54 299t-104.5 200.5t-164.5 73.5q-51 0 -100 -63.5t-95 -168 t-87 -236.5t-74 -269q-16 -72 -31.5 -138.5t-27.5 -130.5q33 -186 50 -379.5t20 -379t-10 -356.5t-42 -312q-20 -96 -50 -183t-84 -147.5t-142 -84t-226 8.5q16 111 25.5 216.5t9.5 216.5q0 248 -45 502.5t-112.5 494.5t-147.5 454t-147.5 381.5t-112.5 279.5t-45 144z M485 3490q-4 6 2 6q4 0 37 -12.5t82 -28.5q84 -31 165 -31t158 16.5t150.5 41.5t145.5 43q35 8 78 18t85 6t78.5 -30.5t59.5 -92.5q2 -6 -2 -6q-68 0 -143.5 -22.5t-156.5 -53t-165 -60.5t-166 -44t-160 -6t-149 55q-39 25 -63.5 70t-35.5 131z" />
<glyph unicode="&#xd2;" d="M36 1875q1 71 10 138.5t34.5 120.5t73 85t125.5 32l108 -10q18 119 60 250.5t106.5 258.5t149.5 243t190.5 204t231 140t268.5 52q213 0 373.5 -93t277.5 -245.5t193.5 -347t122.5 -399.5t64.5 -402.5t18.5 -353.5q0 -197 -25.5 -413.5t-85 -426.5t-156.5 -400.5 t-240.5 -335t-337 -229.5t-445.5 -85q-182 0 -326.5 55.5t-256 151.5t-194.5 226t-141.5 280.5t-96.5 314.5t-58.5 326t-28.5 316.5t-8 287.5q0 53 -4 120.5t-3 138.5zM827 1325q0 -70 4.5 -165t15.5 -204.5t31.5 -225.5t52.5 -226.5t78 -208.5t109.5 -173t145.5 -118 t184 -43q135 0 243.5 67.5t192.5 178t144.5 251t99.5 285t57.5 280.5t18.5 241q0 176 -11.5 369.5t-42 387t-87 376.5t-146.5 339l2 -2q-35 61 -83 121.5t-108.5 108t-131 77t-148.5 29.5q-111 0 -189.5 -84t-133 -215t-88 -293t-51 -317.5t-24 -288.5t-6.5 -205 q0 -90 8.5 -159.5t20.5 -155.5zM1087.5 4260q-2.5 43 32.5 82q37 45 80 48t88 -22.5t89 -72.5t84 -99.5t75 -102.5t59 -83q33 -49 60.5 -96t47 -85t28 -66t2.5 -38q-16 -16 -43 -12t-62 22.5t-77 48t-85 64.5q-37 31 -86 69t-99 80t-95 86t-70.5 89t-28 88z" />
<glyph unicode="&#xd3;" d="M36 1875q1 71 10 138.5t34.5 120.5t73 85t125.5 32l108 -10q18 119 60 250.5t106.5 258.5t149.5 243t190.5 204t231 140t268.5 52q213 0 373.5 -93t277.5 -245.5t193.5 -347t122.5 -399.5t64.5 -402.5t18.5 -353.5q0 -197 -25.5 -413.5t-85 -426.5t-156.5 -400.5 t-240.5 -335t-337 -229.5t-445.5 -85q-182 0 -326.5 55.5t-256 151.5t-194.5 226t-141.5 280.5t-96.5 314.5t-58.5 326t-28.5 316.5t-8 287.5q0 53 -4 120.5t-3 138.5zM827 1325q0 -70 4.5 -165t15.5 -204.5t31.5 -225.5t52.5 -226.5t78 -208.5t109.5 -173t145.5 -118 t184 -43q135 0 243.5 67.5t192.5 178t144.5 251t99.5 285t57.5 280.5t18.5 241q0 176 -11.5 369.5t-42 387t-87 376.5t-146.5 339l2 -2q-35 61 -83 121.5t-108.5 108t-131 77t-148.5 29.5q-111 0 -189.5 -84t-133 -215t-88 -293t-51 -317.5t-24 -288.5t-6.5 -205 q0 -90 8.5 -159.5t20.5 -155.5zM860 3564q-6 10 2 37.5t27.5 65.5t47.5 85t60 96q25 33 60 83t74.5 103.5t85 99.5t89.5 72.5t87 23.5t80 -50q31 -39 28.5 -83t-28 -88t-68.5 -89t-92 -86t-98.5 -79t-88.5 -69q-43 -35 -85 -64.5t-76.5 -48t-62.5 -22t-42 12.5z" />
<glyph unicode="&#xd4;" d="M36 1875q1 71 10 138.5t34.5 120.5t73 85t125.5 32l108 -10q18 119 60 250.5t106.5 258.5t149.5 243t190.5 204t231 140t268.5 52q213 0 373.5 -93t277.5 -245.5t193.5 -347t122.5 -399.5t64.5 -402.5t18.5 -353.5q0 -197 -25.5 -413.5t-85 -426.5t-156.5 -400.5 t-240.5 -335t-337 -229.5t-445.5 -85q-182 0 -326.5 55.5t-256 151.5t-194.5 226t-141.5 280.5t-96.5 314.5t-58.5 326t-28.5 316.5t-8 287.5q0 53 -4 120.5t-3 138.5zM728 3714q7 56 42 97l662 502q4 0 11 -5t30.5 -25.5t67.5 -63.5t122 -120t193.5 -192.5t281.5 -283.5 q-2 -53 -8 -66.5t-23 -21.5q-16 -4 -38.5 -10.5t-51.5 8.5l-534 536l-545 -481q-78 -43 -126 -28.5t-69.5 56.5t-14.5 98zM827 1325q0 -70 4.5 -165t15.5 -204.5t31.5 -225.5t52.5 -226.5t78 -208.5t109.5 -173t145.5 -118t184 -43q135 0 243.5 67.5t192.5 178t144.5 251 t99.5 285t57.5 280.5t18.5 241q0 176 -11.5 369.5t-42 387t-87 376.5t-146.5 339l2 -2q-35 61 -83 121.5t-108.5 108t-131 77t-148.5 29.5q-111 0 -189.5 -84t-133 -215t-88 -293t-51 -317.5t-24 -288.5t-6.5 -205q0 -90 8.5 -159.5t20.5 -155.5z" />
<glyph unicode="&#xd5;" d="M36 1875q1 71 10 138.5t34.5 120.5t73 85t125.5 32l108 -10q18 119 60 250.5t106.5 258.5t149.5 243t190.5 204t231 140t268.5 52q213 0 373.5 -93t277.5 -245.5t193.5 -347t122.5 -399.5t64.5 -402.5t18.5 -353.5q0 -197 -25.5 -413.5t-85 -426.5t-156.5 -400.5 t-240.5 -335t-337 -229.5t-445.5 -85q-182 0 -326.5 55.5t-256 151.5t-194.5 226t-141.5 280.5t-96.5 314.5t-58.5 326t-28.5 316.5t-8 287.5q0 53 -4 120.5t-3 138.5zM827 1325q0 -70 4.5 -165t15.5 -204.5t31.5 -225.5t52.5 -226.5t78 -208.5t109.5 -173t145.5 -118 t184 -43q135 0 243.5 67.5t192.5 178t144.5 251t99.5 285t57.5 280.5t18.5 241q0 176 -11.5 369.5t-42 387t-87 376.5t-146.5 339l2 -2q-35 61 -83 121.5t-108.5 108t-131 77t-148.5 29.5q-111 0 -189.5 -84t-133 -215t-88 -293t-51 -317.5t-24 -288.5t-6.5 -205 q0 -90 8.5 -159.5t20.5 -155.5zM868 4053q-4 6 2 6q4 0 37 -12t82 -29q84 -31 165 -31t158 16.5t150.5 41.5t145.5 43q35 8 78 18t84.5 6t78.5 -30.5t60 -91.5q2 -6 -2 -7q-68 0 -143.5 -22.5t-156.5 -53t-165 -60.5t-166 -44t-160 -6t-149 55q-39 25 -63.5 70t-35.5 131z " />
<glyph unicode="&#xd6;" d="M36 1875q1 71 10 138.5t34.5 120.5t73 85t125.5 32l108 -10q18 119 60 250.5t106.5 258.5t149.5 243t190.5 204t231 140t268.5 52q213 0 373.5 -93t277.5 -245.5t193.5 -347t122.5 -399.5t64.5 -402.5t18.5 -353.5q0 -197 -25.5 -413.5t-85 -426.5t-156.5 -400.5 t-240.5 -335t-337 -229.5t-445.5 -85q-182 0 -326.5 55.5t-256 151.5t-194.5 226t-141.5 280.5t-96.5 314.5t-58.5 326t-28.5 316.5t-8 287.5q0 53 -4 120.5t-3 138.5zM827 1325q0 -70 4.5 -165t15.5 -204.5t31.5 -225.5t52.5 -226.5t78 -208.5t109.5 -173t145.5 -118 t184 -43q135 0 243.5 67.5t192.5 178t144.5 251t99.5 285t57.5 280.5t18.5 241q0 176 -11.5 369.5t-42 387t-87 376.5t-146.5 339l2 -2q-35 61 -83 121.5t-108.5 108t-131 77t-148.5 29.5q-111 0 -189.5 -84t-133 -215t-88 -293t-51 -317.5t-24 -288.5t-6.5 -205 q0 -90 8.5 -159.5t20.5 -155.5zM1044 4010q2 45 18.5 79t38 57.5t44 37.5t39.5 23q41 25 78.5 9t66.5 -55.5t43 -96t10 -112t-31.5 -102t-84.5 -69.5q-55 -23 -98.5 -6.5t-72 54.5t-42 87t-9.5 94zM1481 4010q2 45 18.5 79t38 57.5t44 37.5t38.5 23q41 25 79 9t66.5 -55.5 t43 -96t10.5 -112t-32 -102t-85 -69.5q-55 -23 -98 -6.5t-72 54.5t-42 87t-9 94z" />
<glyph unicode="&#xd7;" horiz-adv-x="987" d="M81 1194q-5 37 2 78t24.5 80t39.5 63q20 20 77 75.5t122 125.5l-199 201q-23 25 -40 63.5t-23 78.5t-1 77t26 59q39 41 64.5 28.5t57.5 -48.5q59 -66 130 -139.5t143 -151.5q82 94 131 161.5t81 106.5t52 48t43 -13q33 -37 34 -89t-23.5 -113.5t-69.5 -130t-103 -138.5 q57 -72 102.5 -139.5t70 -129t24.5 -112.5t-35 -90q-23 -25 -43 -15.5t-52 49.5t-81 107.5t-131 161.5q-72 -78 -142.5 -151.5t-130.5 -139.5q-31 -35 -58.5 -50t-63.5 30q-23 20 -28 57z" />
<glyph unicode="&#xd8;" d="M36 1875q1 71 10 138.5t34.5 120.5t73 85t125.5 32l108 -10q18 119 60 250.5t106.5 258.5t149.5 243t190.5 204t231 140t268.5 52q172 0 311 -63l22 178q25 217 64 316.5t80 109.5t80 -52.5t63 -166.5q8 -45 7 -109.5t-7 -141.5t-17 -161t-24 -166q92 -98 163 -222 t123 -263t88 -286.5t57.5 -291t30.5 -277.5t9 -245q0 -184 -22.5 -385.5t-73.5 -399.5t-134 -380t-206 -328.5t-287 -247t-377 -133.5q-20 -92 -39.5 -175t-35.5 -152q-31 -121 -58.5 -200t-48 -102.5t-33 12.5t-12.5 142q0 39 14.5 156t40.5 303h-18q-182 0 -326.5 55.5 t-256 151.5t-194.5 226t-141.5 280.5t-96.5 314.5t-58.5 326t-28.5 316.5t-8 287.5q0 53 -4 120.5t-3 138.5zM827 1325q0 -80 5.5 -190.5t20.5 -234.5t43 -254t72 -247.5t106.5 -215t150.5 -154.5q31 211 67.5 454.5t75.5 503.5t79 528.5t79 529.5t73.5 504.5t63.5 456.5 q-49 29 -102.5 46.5t-112.5 17.5q-111 0 -189.5 -84t-133 -215t-88 -293t-51 -317.5t-24 -288.5t-6.5 -205q0 -90 8.5 -159.5t20.5 -155.5zM1405 -37q10 0 21.5 -1t21.5 -1q135 0 243.5 67.5t192.5 178t144.5 251t99.5 285t57.5 280.5t18.5 241q0 176 -11.5 369.5t-42 387 t-87 376.5t-146.5 339l2 -2q-6 4 -10 16q-23 -131 -55.5 -324.5t-73.5 -427t-86 -494.5t-94.5 -526t-98.5 -525t-96 -490z" />
<glyph unicode="&#xd9;" horiz-adv-x="2220" d="M-35 1513.5q-4 215.5 8.5 437.5t37 434t57 406.5t69.5 354.5q53 53 124 87t144.5 47t146.5 2t129 -47t91 -99.5t35 -157.5q0 -57 -20.5 -193.5t-48 -321t-57.5 -400.5t-47.5 -432t-15 -417.5t34 -356.5t102 -248t191.5 -93q49 0 97.5 52.5t92.5 138.5t84 194.5t70 220.5 l17 60q-27 246 -30 501.5t14.5 494.5t54 446.5t89 357t118 228.5t143.5 61q27 6 71.5 6t99 -6t111 -19.5t102.5 -34t78.5 -49t39.5 -65.5q6 -29 -6.5 -115t-34 -216t-48 -299t-51 -364.5t-42 -410.5t-21.5 -438.5t10 -446.5t55 -436q16 -98 39 -190.5t51 -184.5 q16 -51 13.5 -84t-20 -52.5t-46.5 -26.5t-63 -7q-139 4 -251 89t-197 229.5t-145.5 337t-97.5 411.5q-39 -117 -77.5 -205t-67.5 -159q-43 -106 -107.5 -178t-141.5 -115t-158.5 -59.5t-159.5 -13.5t-145.5 23.5t-114.5 53.5q-106 68 -182 193.5t-123.5 292.5t-72 366.5 t-28.5 415zM670 3557q-2 43 32 82q37 47 80 49t88 -23.5t89.5 -72.5t84 -99t74.5 -102.5t60 -82.5q33 -49 60.5 -96.5t47 -85.5t27.5 -65.5t2 -37.5q-16 -16 -43 -12t-61.5 22.5t-76.5 48t-85 64.5q-37 31 -86.5 68.5t-99.5 79.5t-95 86t-70.5 89t-27.5 88z" />
<glyph unicode="&#xda;" horiz-adv-x="2220" d="M-35 1513.5q-4 215.5 8.5 437.5t37 434t57 406.5t69.5 354.5q53 53 124 87t144.5 47t146.5 2t129 -47t91 -99.5t35 -157.5q0 -57 -20.5 -193.5t-48 -321t-57.5 -400.5t-47.5 -432t-15 -417.5t34 -356.5t102 -248t191.5 -93q49 0 97.5 52.5t92.5 138.5t84 194.5t70 220.5 l17 60q-27 246 -30 501.5t14.5 494.5t54 446.5t89 357t118 228.5t143.5 61q27 6 71.5 6t99 -6t111 -19.5t102.5 -34t78.5 -49t39.5 -65.5q6 -29 -6.5 -115t-34 -216t-48 -299t-51 -364.5t-42 -410.5t-21.5 -438.5t10 -446.5t55 -436q16 -98 39 -190.5t51 -184.5 q16 -51 13.5 -84t-20 -52.5t-46.5 -26.5t-63 -7q-139 4 -251 89t-197 229.5t-145.5 337t-97.5 411.5q-39 -117 -77.5 -205t-67.5 -159q-43 -106 -107.5 -178t-141.5 -115t-158.5 -59.5t-159.5 -13.5t-145.5 23.5t-114.5 53.5q-106 68 -182 193.5t-123.5 292.5t-72 366.5 t-28.5 415zM827 3002q-6 10 2.5 38t28 66t47 85t60.5 96q25 33 59.5 83t74.5 103.5t85 99.5t89 72.5t87 23.5t80 -50q31 -39 28.5 -83t-28 -88t-68.5 -89t-92 -86t-98 -79t-88 -69q-43 -35 -85 -64.5t-77 -48t-63 -22.5t-42 12z" />
<glyph unicode="&#xdb;" horiz-adv-x="2220" d="M-35 1513.5q-4 215.5 8.5 437.5t37 434t57 406.5t69.5 354.5q53 53 124 87t144.5 47t146.5 2t129 -47t91 -99.5t35 -157.5q0 -57 -20.5 -193.5t-48 -321t-57.5 -400.5t-47.5 -432t-15 -417.5t34 -356.5t102 -248t191.5 -93q49 0 97.5 52.5t92.5 138.5t84 194.5t70 220.5 l17 60q-27 246 -30 501.5t14.5 494.5t54 446.5t89 357t118 228.5t143.5 61q27 6 71.5 6t99 -6t111 -19.5t102.5 -34t78.5 -49t39.5 -65.5q6 -29 -6.5 -115t-34 -216t-48 -299t-51 -364.5t-42 -410.5t-21.5 -438.5t10 -446.5t55 -436q16 -98 39 -190.5t51 -184.5 q16 -51 13.5 -84t-20 -52.5t-46.5 -26.5t-63 -7q-139 4 -251 89t-197 229.5t-145.5 337t-97.5 411.5q-39 -117 -77.5 -205t-67.5 -159q-43 -106 -107.5 -178t-141.5 -115t-158.5 -59.5t-159.5 -13.5t-145.5 23.5t-114.5 53.5q-106 68 -182 193.5t-123.5 292.5t-72 366.5 t-28.5 415zM503 3574.5q7 56.5 42 97.5l661 502q2 0 10.5 -5t32 -25.5t67.5 -63.5t122 -120t193.5 -192.5t281.5 -283.5q-2 -53 -8.5 -66.5t-22.5 -21.5q-16 -4 -38.5 -10.5t-51.5 8.5l-535 536l-544 -481q-78 -43 -126 -29t-69.5 56t-14.5 98.5z" />
<glyph unicode="&#xdc;" horiz-adv-x="2220" d="M-35 1513.5q-4 215.5 8.5 437.5t37 434t57 406.5t69.5 354.5q53 53 124 87t144.5 47t146.5 2t129 -47t91 -99.5t35 -157.5q0 -57 -20.5 -193.5t-48 -321t-57.5 -400.5t-47.5 -432t-15 -417.5t34 -356.5t102 -248t191.5 -93q49 0 97.5 52.5t92.5 138.5t84 194.5t70 220.5 l17 60q-27 246 -30 501.5t14.5 494.5t54 446.5t89 357t118 228.5t143.5 61q27 6 71.5 6t99 -6t111 -19.5t102.5 -34t78.5 -49t39.5 -65.5q6 -29 -6.5 -115t-34 -216t-48 -299t-51 -364.5t-42 -410.5t-21.5 -438.5t10 -446.5t55 -436q16 -98 39 -190.5t51 -184.5 q16 -51 13.5 -84t-20 -52.5t-46.5 -26.5t-63 -7q-139 4 -251 89t-197 229.5t-145.5 337t-97.5 411.5q-39 -117 -77.5 -205t-67.5 -159q-43 -106 -107.5 -178t-141.5 -115t-158.5 -59.5t-159.5 -13.5t-145.5 23.5t-114.5 53.5q-106 68 -182 193.5t-123.5 292.5t-72 366.5 t-28.5 415zM776 3561q2 45 18.5 79t38 57.5t44 38t38.5 22.5q41 25 79 9.5t67 -55.5t43 -96.5t10 -111.5t-32 -102t-85 -70q-55 -23 -98 -6.5t-71.5 54.5t-42 87t-9.5 94zM1212 3561q2 45 18.5 79t38 57.5t44 38t39.5 22.5q41 25 78.5 9.5t66.5 -55.5t43 -96.5t10 -111.5 t-31.5 -102t-84.5 -70q-55 -23 -98.5 -6.5t-72 54.5t-42 87t-9.5 94z" />
<glyph unicode="&#xdd;" horiz-adv-x="1974" d="M155 1875q5 187 17 370q4 63 11 140t22.5 155.5t41 152.5t66.5 131.5t98.5 92t137.5 34.5q74 8 144.5 1t127 -33.5t92 -72.5t39.5 -114q2 -49 -16 -165t-42 -271.5t-47.5 -335.5t-30.5 -357.5t7.5 -337t65.5 -272.5q37 -86 100.5 -136t137 -60.5t149.5 21.5t139 112 q47 59 88 135t70 162l51 1040q10 94 55 157.5t109.5 97.5t140.5 40t145.5 -15.5t126 -69.5t83.5 -122q-25 -98 -32 -227t-24 -264q-20 -172 -35.5 -363.5t-32 -391.5t-35 -403.5t-44.5 -400.5q111 4 223.5 -3t219 -21.5t201.5 -35.5t171 -46q242 -70 472 -160t472 -195 q125 -51 303 -119.5t385 -136t432.5 -122t446.5 -78t426 -4t371.5 100.5t282.5 233.5t159 398.5q25 82 30 158.5t22 130t63.5 73t154.5 -13.5q115 -39 177.5 -122t84 -191.5t5 -230.5t-59.5 -240.5t-109.5 -222t-146.5 -173.5q-115 -104 -257 -175t-299 -114t-320.5 -60 t-321.5 -13q-240 4 -495 59t-510 140t-503.5 188.5t-476.5 202.5q-156 70 -307 135t-301 131q-113 51 -241 109.5t-260 111.5t-264 97t-251 65q-29 -190 -69.5 -366.5t-97 -328t-131 -272.5t-173.5 -203q-117 -98 -224.5 -125.5t-207.5 -5.5q-113 27 -183.5 83.5t-105 132 t-40 163.5t13 178t57.5 174t92 154q111 147 246 255t283 194l39 739q-49 -109 -127 -185.5t-179.5 -120.5t-223.5 -55.5t-259 11.5q-160 27 -270.5 109.5t-181 205.5t-106.5 280.5t-49 333t-8 362.5zM957.5 -649q-3.5 -47 16 -82t70.5 -47q82 -18 147.5 23.5t115 118.5 t86.5 175.5t59.5 192.5t34.5 172t14 114q-16 -6 -56 -25.5t-94.5 -55t-114.5 -90t-116 -128.5q-18 -25 -44.5 -67.5t-52.5 -94t-44 -105.5t-21.5 -101zM1161 3002q-6 10 2 38t27.5 66t47.5 85t60 96q25 33 60 83t75 103.5t85 99.5t89 72.5t87 23.5t80 -50q31 -39 28.5 -83 t-28 -88t-68.5 -89t-92 -86t-98.5 -79t-88.5 -69q-43 -35 -85 -64.5t-76.5 -48t-62.5 -22.5t-42 12z" />
<glyph unicode="&#xdf;" horiz-adv-x="4671" d="M42 1366q1 35 1 47q2 68 6 137.5t6 135.5q0 45 27 38q25 -4 32 -21t7 -40q0 -59 -2 -107.5t-6 -103.5q35 41 69 47q37 6 58.5 -17.5t31 -58t8.5 -72.5t-10 -61l49 70q4 41 8.5 82t4.5 82q6 6 17 6t23.5 -5t23 -14.5t12.5 -23.5q-8 -45 -13 -103q0 -6 -1 -27.5t0 -45 t5 -41t15 -13.5q8 6 26 33q8 14 18.5 37t26.5 57q4 33 4 58.5t3 42.5q0 4 -1.5 8t-1.5 8q8 6 19.5 9t24 2t21.5 -8t11 -23q2 -115 3 -181.5t1 -102.5v-47v-15q59 8 132 -9.5t151 -39t155.5 -36t147.5 2.5q45 10 73.5 39.5t31.5 89.5q2 12 1 24.5t1 21.5t8 13t22 0 q35 -8 44.5 -44t0.5 -77q-18 -57 -59 -90t-93 -46t-110.5 -10t-109.5 17q-53 14 -107.5 36t-107 41t-98.5 31.5t-83 10.5q-2 -35 -6 -75t-11 -78.5t-21.5 -71.5t-38.5 -54q-27 -23 -49.5 -24.5t-39.5 8.5q-16 12 -22 31.5t-5 42t6 43t11 37.5q16 41 41 76.5t53 68.5 q0 57 1 112.5t-1 110.5q-6 -12 -14 -30.5t-20 -36.5q-14 -23 -33 -41.5t-47 -16.5q-18 2 -33.5 21.5t-20.5 52.5v39q-31 -45 -70.5 -81t-86.5 -34q-33 2 -51 19q-6 -8 -17 -12q-23 -6 -34 18.5t-15 60t-3 70.5zM110 1350.5q-1 -43.5 3 -99.5q12 -10 29.5 -12t27.5 14 q12 16 19.5 46t11.5 65q0 10 -1 33.5t-6.5 43t-17.5 26t-37 -18.5q-10 -8 -17 -16.5t-11 -14.5q0 -23 -1 -66.5zM400 875.5q3 -15.5 18 -17.5q18 0 35 19q20 27 25 87t9 119q-49 -59 -71 -118q-2 -4 -7.5 -20.5t-8.5 -35t0 -34zM646 2358.5q13 11.5 30 -5.5q10 -4 16 -11 t13 -13q25 -18 46 -35t50 -27q23 -8 46 -10t52 4q2 12 2 25.5v25.5q4 68 11.5 131.5t23.5 112.5t44 78.5t75 29.5q4 0 28.5 -11t40.5 -23l6 -7l13 -8q23 -29 22 -98q0 -43 -12 -84t-30.5 -76t-42 -61.5t-48.5 -40.5l-16 -10q0 -4 -7.5 -46t-23.5 -135l4 -2q12 -2 22.5 -4 t22.5 -6q51 -16 101.5 -37.5t103.5 -44.5q37 -16 93.5 -38.5t121 -41t130 -28t122.5 2t98 47.5t56 107q4 16 5 34t5 29t14 16t35 -3q37 -14 49 -48t7 -74t-24.5 -77.5t-45.5 -60.5q-53 -47 -125 -62.5t-142 -11.5q-51 2 -107 14.5t-112.5 32t-112 43t-104.5 47.5l-131 62 q-33 16 -61.5 27.5t-55.5 23.5q-20 -49 -63 -79.5t-96 -30.5q-35 0 -57.5 15t-32 37.5t-3 48.5t26.5 46q29 25 69 28t81 3q4 6 7 27.5t5 46t3 35.5l1 30q-57 -6 -102 14q-29 10 -57.5 24.5t-55.5 35.5q-10 10 -18.5 16t-12.5 14q-16 25 -3 36.5zM684 1249q0 16 10.5 25.5 t16.5 13.5q12 6 23 -4t15.5 -26.5t0 -33t-22.5 -22.5q-23 -10 -34 9.5t-9 37.5zM686 1427q2 18 12.5 26.5t16.5 12.5q12 8 22.5 -2t14.5 -26.5t-0.5 -33t-20.5 -22.5q-23 -10 -35 9.5t-10 35.5zM735 2006.5q-2 -19.5 39 -19.5q33 0 54.5 15t33.5 38q-23 8 -49.5 11 t-48.5 -11q-27 -14 -29 -33.5zM856 1540q20 68 86 124t147.5 91t165.5 41t144 -31q4 -10 1 -18t-42 -16q-88 2 -164 -13q41 -41 47 -139q2 -10 2 -18.5v-18.5q35 10 64 6q10 -2 20 -1t21 -7q8 -8 8 -20.5t-23 -16.5h-37l-53 -6q-2 -72 -15.5 -144.5t-39.5 -131.5 q-6 -14 -19.5 -37t-30 -39.5t-35 -21.5t-32.5 18q37 72 49.5 154.5t1.5 164.5q-23 -10 -44 -22.5t-38 -22.5q-2 2 -1 10.5t12 18.5q20 25 67 49q-6 31 -15 59.5t-20 57.5l-28 59v2q-33 -16 -65 -36.5t-66 -47.5q-31 -31 -46.5 -52.5t-13.5 -21.5q-18 4 -8 27zM1026 2304 q55 45 78.5 106.5t23.5 129.5q0 20 -3 33.5t-7 25.5q-10 -10 -19.5 -23.5t-17.5 -27.5q-16 -41 -29.5 -91.5t-21.5 -109.5q-2 -10 -3 -21.5t-1 -21.5zM1141 2157q-2 30 3 65t17.5 71t34.5 64q20 27 45 26t45 -18q16 -14 13 -27.5t-11 -29.5q-23 -68 -29 -99.5t-4 -54.5 q2 -49 18.5 -73.5t39.5 12.5q33 45 35 107q-33 -2 -43.5 28.5t-4.5 55.5q4 14 10.5 27t22.5 13q18 0 26.5 -10t11.5 -24.5t2 -33t-1 -32.5q18 0 33.5 19.5t26.5 29.5q18 35 27 57.5t18 39.5l2 4q6 39 20 58t33 13q8 -4 6 -18q-6 -18 -2 -43t11 -55.5t17.5 -64.5t16.5 -66 l2 -23l25 20q10 10 19 20.5t18 25.5q2 59 8 115.5t12 115.5h-39q-55 0 -113 -6q-37 -4 -73 -12l-15 -5q-8 0 -8 9q0 4 4 8q66 23 123.5 30t122.5 7q2 16 4 33.5t2 33.5q0 25 23 25q16 0 33.5 -13.5t17.5 -31.5q0 -12 -2 -23.5t-4 -21.5q63 2 122.5 11t118.5 38 q31 14 67 37.5t52 56.5q10 20 19.5 38.5t36.5 25.5h20q43 0 60.5 -34t17.5 -73q0 -53 -34 -82t-81 -43t-100 -17t-90 -3q-53 0 -105.5 2t-105.5 6q-8 -66 -16.5 -139.5t-8.5 -139.5q0 -16 2 -18q0 -57 15 -94q8 -27 6 -38t-11.5 -10t-21.5 13t-25 31q-16 27 -25 61.5 t-9 54.5v19q-12 -16 -23.5 -29.5t-28.5 -26.5l-4 -4v-16q0 -20 -10 -55q-10 -25 -30.5 -39.5t-45 -19.5t-49 -1t-43.5 17q-23 12 -29 29.5t-2 35t18.5 32.5t35.5 21q27 14 79 11q-14 45 -22 73.5t-11 45t-3 24.5v12q0 2 -4 2l-3 -6l-9 -22.5t-13 -24.5l-4 -6q0 -2 -1 -2 t-1 -2l-31.5 -31.5t-38.5 -19.5q-6 -70 -39 -123q-20 -37 -50 -52.5t-75 7.5q-41 23 -59 73q-6 16 -8 46zM1330 2249q-1 -25 20 -27q0 12 1 25.5t-1 36.5q0 12 -4.5 16t-10.5 -14q-4 -12 -5 -37zM1359 1541.5q3 25.5 15 43.5q18 27 44 26t34 -48q4 -29 2 -58.5t-8 -50.5 q6 -4 21.5 3t27.5 9q23 4 31 -9t8 -36q0 -10 -3 -45t-7 -67q-2 -37 0 -47.5t20 20.5l58 115q23 57 60.5 103t84.5 54q29 4 43 -2q18 -6 28.5 -32.5t-12.5 -36.5q-57 -27 -100 -88q-6 -12 -15.5 -32t-16.5 -39t-8 -37.5t9 -29.5q14 -14 39 25q20 29 39 70t31 57 q10 12 27.5 16.5t27.5 -12.5q2 -2 3 -5t-3 -24q0 -2 -4 -25.5t-5 -48t2 -37.5t17 7t31.5 54t34.5 69l4 94q2 14 3 28.5t20 14.5q39 0 42 -24.5t3 -53.5v-51q4 10 14 30.5t22 39.5q31 45 67 40t42 -57q4 -29 1 -57.5t-7 -56.5q0 -14 -2 -38t-1 -40.5t9 -16.5t29 33 q10 18 20 40t21 44q4 33 17 67t32.5 58.5t42 38.5t45.5 10q18 -4 27.5 -16t12.5 -25.5t1 -24t-6 -10.5l-4 5q0 8 -1.5 17t-9.5 11q-14 2 -32.5 -35.5t-30.5 -85t-13.5 -88.5t19.5 -43q18 -2 35.5 9.5t34 32t31 44t26.5 45.5v9q2 23 6 51t4 78q16 10 41 1.5t29 -36.5 q-4 -47 -11.5 -103.5t3.5 -101.5q2 -12 22 14q16 29 35.5 67t34.5 66l2 3q18 33 27.5 53t15.5 37l2 4q12 76 49 65q6 -2 4 -16q-8 -23 1 -64t22.5 -89t25 -96t8.5 -81q55 -12 117 -40.5t124.5 -56.5t123.5 -48.5t117 -16.5q51 4 96 43t55 107q4 12 9.5 19t25.5 -1 q25 -10 33 -33.5t4 -51t-17.5 -55.5t-29.5 -44q-35 -31 -82 -43t-94 -10q-70 4 -148 34.5t-143 63.5q-80 41 -120 62.5t-75 33.5q-6 -45 -27.5 -69.5t-68.5 -24.5q-25 0 -47.5 9t-38.5 25.5t-22.5 39t4.5 47.5q14 37 59 10q8 16 34.5 18.5t43.5 -1.5q2 23 -5 51t-16.5 57 t-17.5 56.5t-8 48.5v2l-2 -5q-8 -16 -15.5 -30.5t-11.5 -20.5q-12 -27 -30.5 -65.5t-36.5 -73.5q-10 -18 -19.5 -32.5t-19.5 -24.5q-23 -16 -39 2q-18 23 -24.5 55.5t-8.5 65.5q-16 -31 -34.5 -58.5t-37.5 -44.5q-53 -47 -98 -28.5t-57 83.5q0 4 -1 9.5t-1 9.5l-19 -37 q-18 -33 -41.5 -57.5t-46.5 -24.5q-20 0 -28.5 18.5t-9.5 47t2 61.5t4 61.5t-3 47t-20 18.5q-6 0 -13.5 -10t-14.5 -24.5t-13 -31t-10 -30.5q-6 -49 -5.5 -82t-3.5 -47q-8 -20 -24.5 -21.5t-26.5 19.5q-10 18 -12 41.5t-2 44.5v24.5t2 24.5l-49 -94q-12 -23 -28.5 -39.5 t-32 -19.5t-27 9.5t-15.5 45.5q-2 16 -1 34.5t1 34.5q-10 -16 -22 -40.5t-28.5 -47t-36 -35t-44.5 -4.5q-31 10 -42 42t-7 73l-18 -37q-10 -25 -18.5 -40t-14.5 -25q-16 -25 -37.5 -21t-32.5 27q-12 39 -8 98t8 104q-8 -4 -15 -5t-13 -3l-27 -57l-18 4q8 14 14 28.5t12 26.5 q-23 6 -36 25.5t-18 45.5t-2 51.5zM1403 1511.5q0 -16.5 5 -31t17 -18.5q6 6 9.5 23.5t2.5 36t-5.5 33t-12.5 14.5q-6 -8 -11 -24.5t-5 -33zM1412 2092q-7 -24 22 -34q39 -12 65.5 13.5t13.5 62.5q-10 4 -31.5 4t-39.5 -10q-23 -12 -30 -36zM2054 2413q8 0 10 -3l23 -6 q45 -10 86 -0.5t78 15.5q20 2 44.5 4t37.5 -23q-29 0 -60.5 -8t-65.5 -15t-67 -9.5t-61 10.5q-20 8 -25 35zM2068 2198q8 0 31 -7q47 -10 87 -1.5t81 12.5q18 4 42 6t36 -21q2 0 2 -1t-2 -1q-27 0 -58.5 -8t-65.5 -15.5t-66.5 -9.5t-59.5 11q-10 4 -17 11t-10 24zM2085 2275 q-4 10 1 18.5t11 10.5q18 4 21 -20q2 -6 0.5 -14.5t-9.5 -10.5q-18 -2 -24 16zM2138 2341v2v2l29 2q2 0 2 -2v-2q0 -2 -1 -2t-1 -4q-2 -2 -2 -6l6 -101q0 -2 6 -8q2 0 2 -2v-4q0 -2 -2 -2l-29 -2q-2 0 -2 2v4v2q6 6 6 8l-10 101q0 6 -2 6q-2 2 -2 6zM2177 2343v4l2 2h19 q4 0 4 -2l32 -68l-4 56q0 8 -4 8q-2 0 -2 4v2q0 2 2 2l21 2v-2l2 -4l-2 -2q-6 -6 -2 -8l6 -115q0 -2 -2 -2l-2 -2q-2 2 -4 2l-45 90l6 -78q2 0 2 -2q0 -4 2 -6l2 -2v-4q0 -2 -2 -2h-21h-2v4q0 2 1 2t1 2q2 0 2 8l-6 101q-2 0 -2 2t-1 2t-1 4q-2 0 -2 2zM2273 2288 q-4 25 15 30q10 2 13 -5t5 -15q4 -8 3 -15.5t-11 -9.5q-16 -6 -25 15zM2402 2599q4 47 42 67.5t102 20.5q18 0 23 -14.5t5 -42.5q2 -90 9.5 -170t23.5 -153t45 -140.5t76 -134.5q8 31 9 69.5t0 77.5t-4 76t-3 65l-6 35q-4 20 11 32.5t36.5 12.5t43 -15t30.5 -54 q6 -31 15 -73t24 -85q-2 66 11 145.5t35.5 162.5t53.5 161t62.5 139.5t63.5 99t56 39.5q66 5 162 -67q18 -12 11 -32.5t-27 -43.5q-78 -94 -140.5 -180t-106.5 -175t-66.5 -186.5t-20.5 -214.5q-10 -10 -25 -6q-25 -2 -49.5 14.5t-49 44t-46 64.5t-39.5 76q6 -66 5 -131.5 t-24 -100.5q-6 0 -8 -2q-4 -4 -8 -4h-8q-43 0 -84 33t-79 86t-68.5 119.5t-53 136.5t-33 134.5t-6.5 113.5zM2439 1650q2 13 10 17q12 8 33 -8.5t27 -36.5q4 -14 -4 -26.5t-20.5 -16.5t-25 1t-16.5 28q-6 29 -4 42zM2559 1192.5q5 -16.5 17.5 -29t31 -18.5t36.5 -2 q41 10 41 92q-16 8 -32.5 8t-26.5 -14q10 -6 16 -18.5t5 -23.5t-7 -18.5t-21 -3.5q-8 2 -13 11.5t-5 17.5q-4 18 0 35q-29 23 -39 -2q-8 -18 -3 -34.5zM2617.5 1195.5q0.5 -13.5 10.5 -17.5q4 -2 6 3t1 12t-4 15.5t-10 10.5q-4 -10 -3.5 -23.5zM3015 1264.5q-2 23.5 5 44 t32 26.5q12 -8 4 -22q-8 -2 -11.5 -10.5t-0.5 -19.5t14.5 -22.5t33.5 -17.5q49 -10 95.5 9.5t77.5 68.5q20 33 25 64.5t-5 54t-35.5 34t-68.5 5.5q-74 -12 -114 13.5t-52 70.5q-12 47 4 106.5t57 106.5q35 41 84 60t109 3q86 -20 102 -98q51 27 120.5 33t119.5 2 q49 -4 98 -14.5t100 -20.5q47 -10 123 -22.5t156 -12.5q2 2 14 2l4 -2q49 2 94.5 12.5t79 32t53 57t19.5 88.5q2 16 0 32t0 27t10 16t31 3q35 -6 52.5 -33.5t19.5 -63.5t-8.5 -74t-30.5 -62q-31 -41 -76 -65.5t-96 -39.5q4 -4 5 -7t3 -7q4 -14 -4 -26.5t-20.5 -16.5t-25 1 t-16.5 28l-4 16q-12 -2 -26.5 -3t-28.5 -1q-4 -57 -11 -110.5t-12 -106.5q-2 -20 -4 -46t0 -50q0 -35 8.5 -32t18.5 19q10 18 22.5 42t22.5 46q0 6 2 9q0 23 5 51t5 78q14 10 39 1.5t29 -36.5q-4 -47 -11.5 -103.5t3.5 -101.5q2 -12 22 14q14 25 31.5 57.5t32.5 61.5 q4 27 14 51.5t27 44.5q18 23 40.5 22t41.5 -15q16 -12 12 -23.5t-8 -28.5q-23 -61 -29 -89.5t-4 -49.5q4 -45 18.5 -67.5t34.5 10.5q16 23 22.5 47t8.5 51q-29 -2 -38 25.5t-3 50.5q4 12 9 24.5t20 12.5q16 0 23 -9.5t10 -22.5t2 -28.5t-1 -29.5q16 0 35 20.5t23 24.5 q12 0 12 -7q-14 -18 -30.5 -35.5t-39.5 -21.5q-6 -53 -34 -110q-18 -35 -45 -48.5t-68 7.5q-41 18 -55 67q-6 20 -6 72q-10 -20 -19.5 -40t-19.5 -38t-18.5 -32.5t-20.5 -24.5q-23 -16 -39 2q-16 20 -23.5 52t-9.5 62q-8 -16 -15.5 -30.5t-15.5 -28.5q-10 -18 -18 -32.5 t-21 -24.5q-23 -16 -36 2q-14 14 -19.5 30.5t-9.5 34.5q-23 -29 -44.5 -51t-60.5 -8q-27 12 -39 42t-12 64l-28 -57q-10 -18 -19.5 -32.5t-21.5 -24.5q-18 -16 -37 2q-18 20 -24.5 53t-8.5 65q-10 -20 -20.5 -42.5t-22.5 -43.5q-16 -23 -42 -30.5t-44 16.5q-10 14 -13 34.5 t-3 42t2 42t2 33.5q2 23 6 50.5t4 76.5q16 12 40.5 3t28.5 -38q-4 -39 -10 -88t-2 -90q0 -29 6 -31t14.5 8t16.5 26.5t12 22.5q10 23 19.5 43.5t13.5 38.5l8 94q8 6 22.5 8.5t22.5 -3.5q8 -4 19 -31q-4 -47 -11.5 -103.5t3.5 -101.5q2 -12 22 14l49 95q10 45 33 79.5 t55 38.5q20 4 41 -1t31 -19q4 35 7 67.5t7 65.5q-72 6 -142.5 20.5t-135.5 28.5q-33 10 -64.5 16.5t-64.5 14.5q-37 8 -78 18.5t-81 16.5t-73.5 3t-54.5 -20q2 -25 -6 -51q-4 -10 -13.5 -24.5t-23.5 -16.5q-23 -4 -32 8.5t-7 30.5t12.5 35.5t28.5 23.5q-20 29 -66 34 t-83 -32q-33 -37 -49.5 -86t12.5 -81q12 -12 32.5 -20.5t51.5 -8.5q94 0 137 -38t47 -93q2 -31 -7 -66t-27.5 -66.5t-46 -58t-60.5 -41.5q-25 -12 -56.5 -18t-63.5 -5t-60.5 11t-49.5 31q-10 10 -19 32.5t-11 46zM3115 2228q2 25 7 56.5t5 85.5q16 12 44 1.5t32 -40.5 q-6 -51 -13 -114t3 -112q6 -14 26 17q14 23 30 53.5t30 58.5v4q4 68 11 131.5t13 129.5l2 36q2 27 10.5 35t20.5 6q29 -6 35 -25t6 -44q-4 -70 -12 -135.5t-12 -130.5q-2 -23 -6.5 -50.5t-0.5 -56.5q2 -39 9.5 -35t19.5 23q12 20 24.5 45.5t26.5 50.5q10 51 35 92t62 45 q23 4 46 -1t33 -21l17 166l4 36q2 27 9 35t22 6q29 -6 35 -25.5t4 -43.5q-2 -70 -11.5 -135.5t-13.5 -130.5q-2 -23 -4 -50.5t0 -56.5q0 -39 8 -35t21 23q16 31 36.5 71.5t36.5 73.5q6 4 12.5 1t6.5 -9q-14 -29 -34 -72t-42 -82q-10 -20 -19.5 -36.5t-23.5 -26.5 q-25 -14 -41 2t-21.5 33.5t-9.5 40.5q-25 -33 -50.5 -57.5t-65.5 -8.5q-27 14 -40.5 45t-15.5 68q-6 -16 -14 -30.5t-14 -29.5q-12 -20 -22.5 -36.5t-23.5 -26.5q-23 -16 -40 2q-16 16 -22.5 38.5t-10.5 45.5q-4 27 0 55q-10 -23 -19.5 -41t-19.5 -37q-10 -20 -19.5 -36.5 t-23.5 -26.5q-18 -14 -41 2q-29 35 -33 88t-4 96zM3126 2512q3 15 12 19q14 10 35.5 -8t27.5 -41q6 -16 -2 -29.5t-21.5 -18.5t-28 1t-20.5 31q-6 31 -3 46zM3312 1655q2 -8 10 -6q16 4 19 23.5t-1 35.5q-10 -2 -17 -12t-10 -21.5t-1 -19.5zM3344 1620q-4 8 4.5 9t24.5 1 l127 4q2 16 2 34v34q0 23 21 22q16 0 30.5 -12t14.5 -29v-24t-2 -25q59 0 101 -4t48 -18q4 -10 -29.5 -7t-121.5 -1q-6 -61 -14.5 -126t-8.5 -122v-17q2 -23 6 -44l8 -42q8 -25 5 -34t-12 -8t-20.5 11.5t-19.5 26.5q-16 25 -23 56.5t-10 50.5v18q0 59 7.5 115.5t13.5 114.5 q-31 -2 -57.5 -2h-34.5q-20 -2 -39 3t-21 15zM3504 2128q2 -33 13.5 -39t25.5 2t27.5 24.5t19.5 28.5q0 25 2 48.5t4 45.5l4 66q-16 29 -33.5 19.5t-33 -40t-23.5 -73.5t-6 -82zM3965 1300q2 -31 12 -35.5t23.5 3.5t26 22.5t18.5 24.5q0 23 1 44t3 42l4 59 q-14 25 -30.5 16.5t-30 -36t-21.5 -66.5t-6 -74zM4503 1411.5q-1 -22.5 17 -25.5q0 10 1 22.5t1 33.5q0 10 -5 14t-9 -12q-4 -10 -5 -32.5z" />
<glyph unicode="&#xe0;" horiz-adv-x="1556" d="M-70.5 671q-17.5 124 2 270t68.5 297t126 293t173 258t210 193.5t239 98.5q123 16 206 -17q47 -16 88 -62t59.5 -100.5t7.5 -106.5t-69 -79q-137 -59 -269 -174t-230 -262q-25 -37 -55.5 -93.5t-59.5 -121t-51.5 -134t-30.5 -133t1 -117.5t44 -89q31 -29 81 3t108 124 q49 74 98 165t95 180t86 166t71 120q25 33 61.5 54t75.5 26.5t76 -8t59 -50.5q4 -6 8 -11t5 -19.5t0 -42t-7 -76.5q-2 -8 -13 -67.5t-22.5 -139.5t-17.5 -164t-1 -138.5t28.5 -64.5t72.5 58q43 59 93.5 148t102.5 191.5t104.5 209t97.5 198.5q16 14 32.5 16.5t28.5 -4 t18.5 -17.5t4.5 -24h-4q-41 -84 -86.5 -183t-95.5 -203.5t-103 -209t-109 -194.5q-45 -74 -96 -134.5t-103.5 -101.5t-103.5 -55t-93 8.5t-72.5 85t-43.5 174.5q-10 88 -6 177.5t6 166.5q-31 -53 -68.5 -128.5t-84.5 -154.5t-101.5 -154t-117 -127t-135 -71.5t-152.5 9.5 q-104 37 -161.5 127t-75 214zM498 2712q-2 43 32 81q37 45 80 48.5t88 -22.5t89 -73t84 -99t75 -102.5t60 -82.5q33 -49 60.5 -96.5t47 -85t27.5 -65.5t2 -38q-16 -16 -43 -12t-61.5 22.5t-76.5 48t-85 64.5q-37 31 -86.5 68.5t-99.5 79.5t-95 86t-70.5 89.5t-27.5 88.5z " />
<glyph unicode="&#xe1;" horiz-adv-x="1556" d="M-70.5 671q-17.5 124 2 270t68.5 297t126 293t173 258t210 193.5t239 98.5q123 16 206 -17q47 -16 88 -62t59.5 -100.5t7.5 -106.5t-69 -79q-137 -59 -269 -174t-230 -262q-25 -37 -55.5 -93.5t-59.5 -121t-51.5 -134t-30.5 -133t1 -117.5t44 -89q31 -29 81 3t108 124 q49 74 98 165t95 180t86 166t71 120q25 33 61.5 54t75.5 26.5t76 -8t59 -50.5q4 -6 8 -11t5 -19.5t0 -42t-7 -76.5q-2 -8 -13 -67.5t-22.5 -139.5t-17.5 -164t-1 -138.5t28.5 -64.5t72.5 58q43 59 93.5 148t102.5 191.5t104.5 209t97.5 198.5q16 14 32.5 16.5t28.5 -4 t18.5 -17.5t4.5 -24h-4q-41 -84 -86.5 -183t-95.5 -203.5t-103 -209t-109 -194.5q-45 -74 -96 -134.5t-103.5 -101.5t-103.5 -55t-93 8.5t-72.5 85t-43.5 174.5q-10 88 -6 177.5t6 166.5q-31 -53 -68.5 -128.5t-84.5 -154.5t-101.5 -154t-117 -127t-135 -71.5t-152.5 9.5 q-104 37 -161.5 127t-75 214zM293 2177q-6 10 2 38t27.5 65.5t47 85t60.5 96.5q25 33 59.5 83t74.5 103t85 99t89 73t87 24t80 -51q31 -39 29 -83t-27.5 -88t-68.5 -89t-92.5 -86t-98.5 -78.5t-88 -68.5q-43 -35 -85 -64.5t-77 -48t-62.5 -22.5t-41.5 12z" />
<glyph unicode="&#xe2;" horiz-adv-x="1556" d="M-70.5 671q-17.5 124 2 270t68.5 297t126 293t173 258t210 193.5t239 98.5q123 16 206 -17q47 -16 88 -62t59.5 -100.5t7.5 -106.5t-69 -79q-137 -59 -269 -174t-230 -262q-25 -37 -55.5 -93.5t-59.5 -121t-51.5 -134t-30.5 -133t1 -117.5t44 -89q31 -29 81 3t108 124 q49 74 98 165t95 180t86 166t71 120q25 33 61.5 54t75.5 26.5t76 -8t59 -50.5q4 -6 8 -11t5 -19.5t0 -42t-7 -76.5q-2 -8 -13 -67.5t-22.5 -139.5t-17.5 -164t-1 -138.5t28.5 -64.5t72.5 58q43 59 93.5 148t102.5 191.5t104.5 209t97.5 198.5q16 14 32.5 16.5t28.5 -4 t18.5 -17.5t4.5 -24h-4q-41 -84 -86.5 -183t-95.5 -203.5t-103 -209t-109 -194.5q-45 -74 -96 -134.5t-103.5 -101.5t-103.5 -55t-93 8.5t-72.5 85t-43.5 174.5q-10 88 -6 177.5t6 166.5q-31 -53 -68.5 -128.5t-84.5 -154.5t-101.5 -154t-117 -127t-135 -71.5t-152.5 9.5 q-104 37 -161.5 127t-75 214zM97 2272.5q7 56.5 42 97.5l662 501q4 0 11 -5t30.5 -25.5t67.5 -63.5t122 -120t193.5 -192.5t281.5 -283.5q-2 -53 -8 -66.5t-22 -21.5q-16 -4 -39 -10t-52 8l-534 537l-545 -482q-78 -43 -126 -28.5t-69.5 56.5t-14.5 98.5z" />
<glyph unicode="&#xe3;" horiz-adv-x="1556" d="M-70.5 671q-17.5 124 2 270t68.5 297t126 293t173 258t210 193.5t239 98.5q123 16 206 -17q47 -16 88 -62t59.5 -100.5t7.5 -106.5t-69 -79q-137 -59 -269 -174t-230 -262q-25 -37 -55.5 -93.5t-59.5 -121t-51.5 -134t-30.5 -133t1 -117.5t44 -89q31 -29 81 3t108 124 q49 74 98 165t95 180t86 166t71 120q25 33 61.5 54t75.5 26.5t76 -8t59 -50.5q4 -6 8 -11t5 -19.5t0 -42t-7 -76.5q-2 -8 -13 -67.5t-22.5 -139.5t-17.5 -164t-1 -138.5t28.5 -64.5t72.5 58q43 59 93.5 148t102.5 191.5t104.5 209t97.5 198.5q16 14 32.5 16.5t28.5 -4 t18.5 -17.5t4.5 -24h-4q-41 -84 -86.5 -183t-95.5 -203.5t-103 -209t-109 -194.5q-45 -74 -96 -134.5t-103.5 -101.5t-103.5 -55t-93 8.5t-72.5 85t-43.5 174.5q-10 88 -6 177.5t6 166.5q-31 -53 -68.5 -128.5t-84.5 -154.5t-101.5 -154t-117 -127t-135 -71.5t-152.5 9.5 q-104 37 -161.5 127t-75 214zM258 2601q-4 6 2 6q4 0 37 -12t82 -29q84 -31 165 -31t157.5 16.5t150 41.5t145.5 43q35 8 78 18t85 6t79 -30.5t59 -92.5q2 -6 -2 -6q-68 0 -143.5 -22.5t-156.5 -53t-164.5 -60.5t-165.5 -44t-160 -6t-150 55q-39 25 -63.5 70t-34.5 131z" />
<glyph unicode="&#xe4;" horiz-adv-x="1556" d="M-70.5 671q-17.5 124 2 270t68.5 297t126 293t173 258t210 193.5t239 98.5q123 16 206 -17q47 -16 88 -62t59.5 -100.5t7.5 -106.5t-69 -79q-137 -59 -269 -174t-230 -262q-25 -37 -55.5 -93.5t-59.5 -121t-51.5 -134t-30.5 -133t1 -117.5t44 -89q31 -29 81 3t108 124 q49 74 98 165t95 180t86 166t71 120q25 33 61.5 54t75.5 26.5t76 -8t59 -50.5q4 -6 8 -11t5 -19.5t0 -42t-7 -76.5q-2 -8 -13 -67.5t-22.5 -139.5t-17.5 -164t-1 -138.5t28.5 -64.5t72.5 58q43 59 93.5 148t102.5 191.5t104.5 209t97.5 198.5q16 14 32.5 16.5t28.5 -4 t18.5 -17.5t4.5 -24h-4q-41 -84 -86.5 -183t-95.5 -203.5t-103 -209t-109 -194.5q-45 -74 -96 -134.5t-103.5 -101.5t-103.5 -55t-93 8.5t-72.5 85t-43.5 174.5q-10 88 -6 177.5t6 166.5q-31 -53 -68.5 -128.5t-84.5 -154.5t-101.5 -154t-117 -127t-135 -71.5t-152.5 9.5 q-104 37 -161.5 127t-75 214zM340 2578q2 45 18.5 79t38 57.5t44 38t38.5 22.5q41 25 79 9.5t66.5 -55.5t43 -96.5t10.5 -111.5t-32 -102t-85 -70q-55 -23 -98 -6.5t-72 54.5t-42 87t-9 94zM776 2578q2 45 18.5 79t38 57.5t44 38t38.5 22.5q41 25 79 9.5t67 -55.5t43 -96.5 t10 -111.5t-32 -102t-85 -70q-55 -23 -98 -6.5t-71.5 54.5t-42 87t-9.5 94z" />
<glyph unicode="&#xe5;" horiz-adv-x="1556" d="M-70.5 671q-17.5 124 2 270t68.5 297t126 293t173 258t210 193.5t239 98.5q123 16 206 -17q47 -16 88 -62t59.5 -100.5t7.5 -106.5t-69 -79q-137 -59 -269 -174t-230 -262q-25 -37 -55.5 -93.5t-59.5 -121t-51.5 -134t-30.5 -133t1 -117.5t44 -89q31 -29 81 3t108 124 q49 74 98 165t95 180t86 166t71 120q25 33 61.5 54t75.5 26.5t76 -8t59 -50.5q4 -6 8 -11t5 -19.5t0 -42t-7 -76.5q-2 -8 -13 -67.5t-22.5 -139.5t-17.5 -164t-1 -138.5t28.5 -64.5t72.5 58q43 59 93.5 148t102.5 191.5t104.5 209t97.5 198.5q16 14 32.5 16.5t28.5 -4 t18.5 -17.5t4.5 -24h-4q-41 -84 -86.5 -183t-95.5 -203.5t-103 -209t-109 -194.5q-45 -74 -96 -134.5t-103.5 -101.5t-103.5 -55t-93 8.5t-72.5 85t-43.5 174.5q-10 88 -6 177.5t6 166.5q-31 -53 -68.5 -128.5t-84.5 -154.5t-101.5 -154t-117 -127t-135 -71.5t-152.5 9.5 q-104 37 -161.5 127t-75 214zM430 2669q0 96 25.5 190t77 169t127 121t174.5 46q117 2 190.5 -48t115.5 -126t56 -164t12 -164q-2 -86 -23.5 -169t-66.5 -148q-47 -70 -112.5 -111t-139.5 -51q-16 -2 -32.5 -3t-32.5 -1q-94 0 -164 39t-116 103.5t-68.5 146t-22.5 170.5z M727 2656q0 -66 9 -124t29.5 -102t52.5 -68.5t77 -20.5q64 8 117 76q31 45 43 97t12 103q0 43 -4 94.5t-15.5 101.5t-27.5 96t-41 81q-29 41 -52.5 59.5t-45.5 18.5q-35 0 -62.5 -37t-48 -95.5t-32 -132t-11.5 -147.5z" />
<glyph unicode="&#xe6;" horiz-adv-x="2062" d="M9.5 820q-17.5 124 2 270.5t68.5 297t126 293t173 258t209.5 193.5t238.5 98q123 16 207 -16q47 -16 88 -62.5t59.5 -100.5t7.5 -106.5t-69 -78.5q-137 -59 -269 -174t-230 -262q-25 -37 -55.5 -92.5t-59.5 -121t-52.5 -135t-32.5 -134t1 -119t47 -87.5q31 -29 81 3 t107 124q53 76 107.5 194t115 250t130 264t155.5 236.5t190.5 167t233.5 54.5q94 -6 164 -62.5t104.5 -139.5t31.5 -181.5t-52 -186.5q-33 -59 -84 -105t-114.5 -83t-135 -62.5t-143.5 -42.5q-25 -111 -39 -217t-12 -192t24.5 -141.5t73.5 -61.5q70 -10 141.5 28t141 107.5 t134 160.5t122 187.5t105.5 189.5t83 165.5t56.5 115.5t25.5 39q23 2 38 -14t7 -57q-18 -47 -52 -122t-79 -164t-99.5 -186.5t-112.5 -188.5t-119.5 -170t-119.5 -130q-135 -117 -261 -149.5t-230.5 7.5t-178 148.5t-104.5 272.5q-25 154 -10 288q-31 -57 -69 -131.5 t-84 -151.5t-101 -148.5t-116.5 -120t-131 -66.5t-147.5 10q-104 37 -161.5 127t-75 214zM1386 1276q70 18 144 47t133 74t99 108.5t44 151.5q8 125 -116 160q-33 8 -73 -35t-81 -119t-80 -177t-70 -210z" />
<glyph unicode="&#xe7;" horiz-adv-x="1124" d="M-214 -213q-3 18 7 30.5t33 8.5q51 -6 122.5 2t139.5 31.5t118 63.5t56 100q4 45 -5 100t-20.5 111.5t-18.5 108.5t1 94t38 67.5t91 27.5q123 4 181.5 -62.5t39.5 -188.5q-10 -68 -38.5 -144t-73.5 -147.5t-106.5 -134t-139.5 -103.5t-170.5 -54.5t-198.5 13.5 q-25 14 -39 36t-17 40zM-46.5 1085.5q13.5 149.5 57.5 293t111.5 271.5t152.5 219t180.5 137t193.5 28q61 -12 102.5 -45t66 -75t34.5 -88t9 -83t-10 -60.5t-24 -21.5q-10 2 -14 5t-10 9q0 18 -1 42t-6 45.5t-16.5 37t-29.5 17.5q-37 4 -80 -46.5t-86 -135.5t-83 -195.5 t-71 -227t-48 -230.5t-16 -205t24.5 -150.5t76.5 -67.5q70 -10 141.5 28t141 107.5t134 160.5t122 187.5t105.5 189.5t83 165.5t56.5 115.5t25.5 39q23 2 38 -14t7 -57q-18 -47 -52 -122t-79 -164t-99.5 -186.5t-112.5 -188.5t-119.5 -170t-119.5 -130 q-135 -117 -261 -149.5t-230.5 7.5t-178 148.5t-104.5 272.5q-25 137 -11.5 286.5z" />
<glyph unicode="&#xe8;" horiz-adv-x="1122" d="M-46.5 1083.5q13.5 147.5 56.5 287.5t111.5 265t152.5 217.5t180.5 141.5t194.5 39q94 -10 164 -67.5t104.5 -139.5t31.5 -178.5t-52 -184.5q-33 -59 -84 -105t-114.5 -83t-135 -62.5t-143.5 -42.5q-25 -111 -39 -217t-12 -192t24.5 -141.5t73.5 -61.5q70 -10 141.5 28 t141 107.5t134 160.5t122 187.5t105.5 189.5t83 165.5t56.5 115.5t25.5 39q23 2 38 -14t7 -57q-18 -47 -52 -122t-79 -164t-99.5 -186.5t-112.5 -188.5t-119.5 -170t-119.5 -130q-135 -117 -261 -149.5t-230.5 7.5t-178 148.5t-104.5 272.5q-25 137 -11.5 284.5zM281 2712 q-2 43 32 81q37 45 80 48.5t88 -22.5t89 -73t84 -99t75 -102.5t59 -82.5q33 -49 61 -96.5t47 -85t27.5 -65.5t2.5 -38q-16 -16 -43 -12t-62 22.5t-77 48t-85 64.5q-37 31 -86 68.5t-99 79.5t-95 86t-70.5 89.5t-27.5 88.5zM446 1276q70 18 144 47t133 74t99 108.5t44 151.5 q8 125 -116 160q-33 8 -73 -35t-81 -119t-80 -177t-70 -210z" />
<glyph unicode="&#xe9;" horiz-adv-x="1122" d="M-46.5 1083.5q13.5 147.5 56.5 287.5t111.5 265t152.5 217.5t180.5 141.5t194.5 39q94 -10 164 -67.5t104.5 -139.5t31.5 -178.5t-52 -184.5q-33 -59 -84 -105t-114.5 -83t-135 -62.5t-143.5 -42.5q-25 -111 -39 -217t-12 -192t24.5 -141.5t73.5 -61.5q70 -10 141.5 28 t141 107.5t134 160.5t122 187.5t105.5 189.5t83 165.5t56.5 115.5t25.5 39q23 2 38 -14t7 -57q-18 -47 -52 -122t-79 -164t-99.5 -186.5t-112.5 -188.5t-119.5 -170t-119.5 -130q-135 -117 -261 -149.5t-230.5 7.5t-178 148.5t-104.5 272.5q-25 137 -11.5 284.5zM76 2177 q-6 10 2 38t27.5 65.5t47 85t60.5 96.5q25 33 59.5 83t74.5 103t85 99t89 73t87 24t80 -51q31 -39 29 -83t-27.5 -88t-68.5 -89t-92.5 -86t-98.5 -78.5t-88 -68.5q-43 -35 -85 -64.5t-77 -48t-62.5 -22.5t-41.5 12zM446 1276q70 18 144 47t133 74t99 108.5t44 151.5 q8 125 -116 160q-33 8 -73 -35t-81 -119t-80 -177t-70 -210z" />
<glyph unicode="&#xea;" horiz-adv-x="1122" d="M-118 2272.5q7 56.5 42 97.5l662 501q2 0 10 -5t31.5 -25.5t68.5 -63.5t122 -120l192.5 -192.5t281.5 -283.5q-2 -53 -8 -66.5t-22 -21.5q-16 -4 -39 -10t-52 8l-534 537l-545 -482q-78 -43 -126 -28.5t-69.5 56.5t-14.5 98.5zM-46.5 1083.5q13.5 147.5 56.5 287.5 t111.5 265t152.5 217.5t180.5 141.5t194.5 39q94 -10 164 -67.5t104.5 -139.5t31.5 -178.5t-52 -184.5q-33 -59 -84 -105t-114.5 -83t-135 -62.5t-143.5 -42.5q-25 -111 -39 -217t-12 -192t24.5 -141.5t73.5 -61.5q70 -10 141.5 28t141 107.5t134 160.5t122 187.5 t105.5 189.5t83 165.5t56.5 115.5t25.5 39q23 2 38 -14t7 -57q-18 -47 -52 -122t-79 -164t-99.5 -186.5t-112.5 -188.5t-119.5 -170t-119.5 -130q-135 -117 -261 -149.5t-230.5 7.5t-178 148.5t-104.5 272.5q-25 137 -11.5 284.5zM446 1276q70 18 144 47t133 74t99 108.5 t44 151.5q8 125 -116 160q-33 8 -73 -35t-81 -119t-80 -177t-70 -210z" />
<glyph unicode="&#xeb;" horiz-adv-x="1122" d="M-46.5 1083.5q13.5 147.5 56.5 287.5t111.5 265t152.5 217.5t180.5 141.5t194.5 39q94 -10 164 -67.5t104.5 -139.5t31.5 -178.5t-52 -184.5q-33 -59 -84 -105t-114.5 -83t-135 -62.5t-143.5 -42.5q-25 -111 -39 -217t-12 -192t24.5 -141.5t73.5 -61.5q70 -10 141.5 28 t141 107.5t134 160.5t122 187.5t105.5 189.5t83 165.5t56.5 115.5t25.5 39q23 2 38 -14t7 -57q-18 -47 -52 -122t-79 -164t-99.5 -186.5t-112.5 -188.5t-119.5 -170t-119.5 -130q-135 -117 -261 -149.5t-230.5 7.5t-178 148.5t-104.5 272.5q-25 137 -11.5 284.5zM219 2355 q2 45 18.5 79t38 57.5t44 38t38.5 22.5q41 25 79 9.5t66.5 -55.5t43 -96.5t10.5 -111.5t-32 -102t-85 -70q-55 -23 -98 -6.5t-71.5 54.5t-42 87t-9.5 94zM446 1276q70 18 144 47t133 74t99 108.5t44 151.5q8 125 -116 160q-33 8 -73 -35t-81 -119t-80 -177t-70 -210z M655 2355q2 45 18.5 79t38 57.5t44 38t39.5 22.5q41 25 78.5 9.5t66.5 -55.5t43 -96.5t10 -111.5t-31.5 -102t-84.5 -70q-55 -23 -98.5 -6.5t-72 54.5t-42 87t-9.5 94z" />
<glyph unicode="&#xec;" horiz-adv-x="708" d="M-24.5 1060q0.5 114 4.5 202q2 55 10 115.5t17 136t16.5 169t7.5 215.5q37 29 91 31t107.5 -20.5t94.5 -68.5t51 -116q-12 -113 -28.5 -243.5t-28 -266t-10.5 -266.5t24 -243q18 -45 48 -18.5t69 85.5q39 72 85 158t92 176t90 177t79 161q12 6 25.5 6t25.5 -5t19 -15.5 t5 -24.5q-31 -68 -70.5 -154t-84.5 -178t-93.5 -187t-95.5 -181q-49 -92 -93 -165t-103 -118q-100 -80 -189 6q-66 74 -100.5 180.5t-50 222t-15 229.5zM74 2712q-2 43 32 81q37 45 80 48.5t88 -22.5t89.5 -73t84 -99t74.5 -102.5t60 -82.5q33 -49 60.5 -96.5t47 -85 t27.5 -65.5t2 -38q-16 -16 -43 -12t-61.5 22.5t-76.5 48t-85 64.5q-37 31 -86.5 68.5t-99.5 79.5t-95 86t-70.5 89.5t-27.5 88.5z" />
<glyph unicode="&#xed;" horiz-adv-x="708" d="M-131 2177q-6 10 2 38t27.5 65.5t47 85t60.5 96.5q25 33 59.5 83t74.5 103t85 99t89 73t87 24t80 -51q31 -39 29 -83t-27.5 -88t-68.5 -89t-92.5 -86t-98.5 -78.5t-88 -68.5q-43 -35 -85 -64.5t-76.5 -48t-62.5 -22.5t-42 12zM-24.5 1060q0.5 114 4.5 202q2 55 10 115.5 t17 136t16.5 169t7.5 215.5q37 29 91 31t107.5 -20.5t94.5 -68.5t51 -116q-12 -113 -28.5 -243.5t-28 -266t-10.5 -266.5t24 -243q18 -45 48 -18.5t69 85.5q39 72 85 158t92 176t90 177t79 161q12 6 25.5 6t25.5 -5t19 -15.5t5 -24.5q-31 -68 -70.5 -154t-84.5 -178 t-93.5 -187t-95.5 -181q-49 -92 -93 -165t-103 -118q-100 -80 -189 6q-66 74 -100.5 180.5t-50 222t-15 229.5z" />
<glyph unicode="&#xee;" horiz-adv-x="708" d="M-521 2272.5q7 56.5 42 97.5l661 501q2 0 10.5 -5t32 -25.5t68.5 -63.5t122 -120l192.5 -192.5t281.5 -283.5q-2 -53 -8.5 -66.5t-22.5 -21.5q-16 -4 -38.5 -10t-51.5 8l-535 537l-544 -482q-78 -43 -126 -28.5t-69.5 56.5t-14.5 98.5zM-24.5 1060q0.5 114 4.5 202 q2 55 10 115.5t17 136t16.5 169t7.5 215.5q37 29 91 31t107.5 -20.5t94.5 -68.5t51 -116q-12 -113 -28.5 -243.5t-28 -266t-10.5 -266.5t24 -243q18 -45 48 -18.5t69 85.5q39 72 85 158t92 176t90 177t79 161q12 6 25.5 6t25.5 -5t19 -15.5t5 -24.5q-31 -68 -70.5 -154 t-84.5 -178t-93.5 -187t-95.5 -181q-49 -92 -93 -165t-103 -118q-100 -80 -189 6q-66 74 -100.5 180.5t-50 222t-15 229.5z" />
<glyph unicode="&#xef;" horiz-adv-x="708" d="M-82 2578q2 45 18.5 79t38 57.5t44 38t38.5 22.5q41 25 79 9.5t66.5 -55.5t43 -96.5t10.5 -111.5t-32 -102t-85 -70q-55 -23 -98 -6.5t-71.5 54.5t-42 87t-9.5 94zM-24.5 1060q0.5 114 4.5 202q2 55 10 115.5t17 136t16.5 169t7.5 215.5q37 29 91 31t107.5 -20.5 t94.5 -68.5t51 -116q-12 -113 -28.5 -243.5t-28 -266t-10.5 -266.5t24 -243q18 -45 48 -18.5t69 85.5q39 72 85 158t92 176t90 177t79 161q12 6 25.5 6t25.5 -5t19 -15.5t5 -24.5q-31 -68 -70.5 -154t-84.5 -178t-93.5 -187t-95.5 -181q-49 -92 -93 -165t-103 -118 q-100 -80 -189 6q-66 74 -100.5 180.5t-50 222t-15 229.5zM354 2578q2 45 18.5 79t38 57.5t44 38t39.5 22.5q41 25 78.5 9.5t66.5 -55.5t43 -96.5t10 -111.5t-32 -102t-85 -70q-55 -23 -98 -6.5t-71.5 54.5t-42 87t-9.5 94z" />
<glyph unicode="&#xf0;" horiz-adv-x="1337" d="M6 1290q0 113 26.5 226.5t84 202.5t149.5 145.5t223 56.5q70 0 137.5 -12.5t129.5 -42.5v117.5t-3 169t-10.5 199t-24 206.5t-42 194.5t-64.5 159.5q-31 -86 -53.5 -171t-34.5 -171q-25 -16 -40 -12t-31 43q39 207 104 383q-29 29 -59.5 44t-69.5 15q-29 0 -54.5 -9 t-49.5 -23q-37 -23 -55.5 -24t-19.5 13.5t11 37t35 46.5q39 41 99.5 57.5t121.5 16.5q43 0 105 -16q57 129 122 233q10 -4 20.5 -4t17.5 -4t13.5 -16.5t10.5 -42.5q-27 -41 -53.5 -91.5t-55.5 -105.5q104 -55 189.5 -165t153 -250t117.5 -297.5t83 -308.5t49.5 -283 t16.5 -220q0 -104 -11.5 -228t-40 -249t-78 -242.5t-123 -209t-176 -145.5t-239.5 -54q-160 0 -277.5 78.5t-196.5 200.5t-118 269.5t-39 282.5zM104 1282q0 -49 8.5 -115.5t27 -139.5t47 -143.5t69.5 -126t95.5 -90t121.5 -34.5q84 0 147.5 53t107.5 130t71.5 165t38.5 156 q-23 0 -48.5 4t-25.5 35q0 49 -1 115.5t-9.5 137t-26.5 139t-51 123t-84 88t-127 33.5q-96 0 -164 -54t-112 -134t-64.5 -173t-20.5 -169z" />
<glyph unicode="&#xf1;" horiz-adv-x="1497" d="M20 856q0 236 9.5 467t19.5 467q2 33 3 72t10.5 71.5t32 54t69.5 21.5q94 0 140 -35t64.5 -90t17.5 -124.5t-1 -139.5q0 -23 -1 -57.5t-1 -71.5t-1 -72t-1 -57q12 27 31.5 66.5t44 86t53.5 95.5t59 96q78 111 168 160t169 38.5t136.5 -80t71.5 -196.5q16 -143 1 -284.5 t-32 -288.5q-4 -45 -12 -117t-11 -143.5t1 -130t24.5 -77t60.5 15.5t107 147q53 90 107.5 200.5t100.5 213t80 183t46 111.5q8 8 18.5 15.5t20.5 5.5t20.5 -16.5t18.5 -47.5q-18 -49 -48 -129t-70 -176t-88 -200.5t-103 -202.5q-45 -80 -99.5 -154t-112 -130t-114.5 -90 t-108 -34q-80 0 -122 54.5t-58.5 143.5t-13.5 202.5t11.5 232.5t15.5 232.5t2 202.5t-31 143.5t-83 54.5q-29 0 -65.5 -49.5t-73.5 -122t-70 -155.5t-53 -153q-12 -125 -15.5 -228t-5.5 -185t-5 -140.5t-15 -95.5q-16 -49 -49 -74.5t-70 -27.5t-73.5 20.5t-61.5 71.5 q-23 47 -36 102.5t-19 111.5t-8.5 111.5t-2.5 104.5zM227 2421q-4 6 2 6q4 0 37 -12.5t82 -28.5q84 -31 165 -31t158 16.5t150.5 41.5t145.5 43q35 8 77.5 18t84.5 6t79 -30.5t60 -92.5q2 -6 -2 -6q-68 0 -143.5 -22.5t-156.5 -53t-165 -60.5t-166 -44t-160 -6t-149 55 q-39 25 -63.5 70t-35.5 131z" />
<glyph unicode="&#xf2;" horiz-adv-x="1134" d="M-122 1038.5q1 96.5 13.5 204t41 215t74.5 209.5t114 186q47 57 100 82t107.5 24t106.5 -23.5t100 -57.5q39 -31 51 -59.5t8 -57t-18.5 -61.5t-28.5 -72q-55 -154 -89 -263.5t-50.5 -190t-20.5 -139t0 -109.5q6 -109 29.5 -197t60.5 -134t83 -40t97 84q72 111 107 236.5 t45 261.5q-74 -6 -121 29.5t-71.5 94t-27.5 127t9 130.5q8 31 19.5 62.5t29 57t42 42t61.5 16.5q80 0 116.5 -44t49 -110.5t10.5 -146.5t-2 -150q41 -4 85 29t84 75t69.5 80.5t41.5 47.5q16 0 41 -11.5t25 -27.5q-35 -47 -73 -92.5t-81 -84t-92 -67.5t-106 -41 q-14 -141 -55.5 -278.5t-117.5 -274.5q-45 -82 -101 -143.5t-124.5 -92t-153.5 -25.5t-188 54q-94 47 -163.5 131t-104.5 213q-14 49 -23.5 127t-8.5 174.5zM287 2712q-2 43 32 81q37 45 80 48.5t88 -22.5t89.5 -73t84 -99t74.5 -102.5t60 -82.5q33 -49 60.5 -96.5t47 -85 t27.5 -65.5t2 -38q-16 -16 -43 -12t-61.5 22.5t-76.5 48t-85 64.5q-37 31 -86.5 68.5t-99.5 79.5t-95 86t-70.5 89.5t-27.5 88.5zM733 1358q2 -47 19.5 -83t62.5 -38q4 53 7 115.5t1 158.5q0 27 -6 47.5t-16 26.5t-22.5 -6t-24.5 -51q-6 -27 -14.5 -75t-6.5 -95z" />
<glyph unicode="&#xf3;" horiz-adv-x="1134" d="M-122 1038.5q1 96.5 13.5 204t41 215t74.5 209.5t114 186q47 57 100 82t107.5 24t106.5 -23.5t100 -57.5q39 -31 51 -59.5t8 -57t-18.5 -61.5t-28.5 -72q-55 -154 -89 -263.5t-50.5 -190t-20.5 -139t0 -109.5q6 -109 29.5 -197t60.5 -134t83 -40t97 84q72 111 107 236.5 t45 261.5q-74 -6 -121 29.5t-71.5 94t-27.5 127t9 130.5q8 31 19.5 62.5t29 57t42 42t61.5 16.5q80 0 116.5 -44t49 -110.5t10.5 -146.5t-2 -150q41 -4 85 29t84 75t69.5 80.5t41.5 47.5q16 0 41 -11.5t25 -27.5q-35 -47 -73 -92.5t-81 -84t-92 -67.5t-106 -41 q-14 -141 -55.5 -278.5t-117.5 -274.5q-45 -82 -101 -143.5t-124.5 -92t-153.5 -25.5t-188 54q-94 47 -163.5 131t-104.5 213q-14 49 -23.5 127t-8.5 174.5zM82 2177q-6 10 2 38t27.5 65.5t47 85t60.5 96.5q25 33 59.5 83t74.5 103t85 99t89 73t87 24t80 -51q31 -39 29 -83 t-27.5 -88t-68.5 -89t-92.5 -86t-98.5 -78.5t-88 -68.5q-43 -35 -85 -64.5t-76.5 -48t-62.5 -22.5t-42 12zM733 1358q2 -47 19.5 -83t62.5 -38q4 53 7 115.5t1 158.5q0 27 -6 47.5t-16 26.5t-22.5 -6t-24.5 -51q-6 -27 -14.5 -75t-6.5 -95z" />
<glyph unicode="&#xf4;" horiz-adv-x="1134" d="M-122 1038.5q1 96.5 13.5 204t41 215t74.5 209.5t114 186q47 57 100 82t107.5 24t106.5 -23.5t100 -57.5q39 -31 51 -59.5t8 -57t-18.5 -61.5t-28.5 -72q-55 -154 -89 -263.5t-50.5 -190t-20.5 -139t0 -109.5q6 -109 29.5 -197t60.5 -134t83 -40t97 84q72 111 107 236.5 t45 261.5q-74 -6 -121 29.5t-71.5 94t-27.5 127t9 130.5q8 31 19.5 62.5t29 57t42 42t61.5 16.5q80 0 116.5 -44t49 -110.5t10.5 -146.5t-2 -150q41 -4 85 29t84 75t69.5 80.5t41.5 47.5q16 0 41 -11.5t25 -27.5q-35 -47 -73 -92.5t-81 -84t-92 -67.5t-106 -41 q-14 -141 -55.5 -278.5t-117.5 -274.5q-45 -82 -101 -143.5t-124.5 -92t-153.5 -25.5t-188 54q-94 47 -163.5 131t-104.5 213q-14 49 -23.5 127t-8.5 174.5zM-111.5 2272.5q7.5 56.5 41.5 97.5l662 501q4 0 11 -5t30.5 -25.5t67.5 -63.5t122 -120t194 -192.5t281 -283.5 q-2 -53 -8 -66.5t-22 -21.5q-16 -4 -39 -10t-51 8l-535 537l-545 -482q-78 -43 -126 -28.5t-69.5 56.5t-14 98.5zM733 1358q2 -47 19.5 -83t62.5 -38q4 53 7 115.5t1 158.5q0 27 -6 47.5t-16 26.5t-22.5 -6t-24.5 -51q-6 -27 -14.5 -75t-6.5 -95z" />
<glyph unicode="&#xf5;" horiz-adv-x="1134" d="M-122 1038.5q1 96.5 13.5 204t41 215t74.5 209.5t114 186q47 57 100 82t107.5 24t106.5 -23.5t100 -57.5q39 -31 51 -59.5t8 -57t-18.5 -61.5t-28.5 -72q-55 -154 -89 -263.5t-50.5 -190t-20.5 -139t0 -109.5q6 -109 29.5 -197t60.5 -134t83 -40t97 84q72 111 107 236.5 t45 261.5q-74 -6 -121 29.5t-71.5 94t-27.5 127t9 130.5q8 31 19.5 62.5t29 57t42 42t61.5 16.5q80 0 116.5 -44t49 -110.5t10.5 -146.5t-2 -150q41 -4 85 29t84 75t69.5 80.5t41.5 47.5q16 0 41 -11.5t25 -27.5q-35 -47 -73 -92.5t-81 -84t-92 -67.5t-106 -41 q-14 -141 -55.5 -278.5t-117.5 -274.5q-45 -82 -101 -143.5t-124.5 -92t-153.5 -25.5t-188 54q-94 47 -163.5 131t-104.5 213q-14 49 -23.5 127t-8.5 174.5zM47 2601q-4 6 2 6q4 0 37 -12t82 -29q84 -31 165 -31t157.5 16.5t150 41.5t145.5 43q35 8 78 18t85 6t79 -30.5 t59 -92.5q2 -6 -2 -6q-68 0 -143.5 -22.5t-156 -53t-164.5 -60.5t-166 -44t-160 -6t-150 55q-39 25 -63.5 70t-34.5 131zM733 1358q2 -47 19.5 -83t62.5 -38q4 53 7 115.5t1 158.5q0 27 -6 47.5t-16 26.5t-22.5 -6t-24.5 -51q-6 -27 -14.5 -75t-6.5 -95z" />
<glyph unicode="&#xf6;" horiz-adv-x="1134" d="M-122 1038.5q1 96.5 13.5 204t41 215t74.5 209.5t114 186q47 57 100 82t107.5 24t106.5 -23.5t100 -57.5q39 -31 51 -59.5t8 -57t-18.5 -61.5t-28.5 -72q-55 -154 -89 -263.5t-50.5 -190t-20.5 -139t0 -109.5q6 -109 29.5 -197t60.5 -134t83 -40t97 84q72 111 107 236.5 t45 261.5q-74 -6 -121 29.5t-71.5 94t-27.5 127t9 130.5q8 31 19.5 62.5t29 57t42 42t61.5 16.5q80 0 116.5 -44t49 -110.5t10.5 -146.5t-2 -150q41 -4 85 29t84 75t69.5 80.5t41.5 47.5q16 0 41 -11.5t25 -27.5q-35 -47 -73 -92.5t-81 -84t-92 -67.5t-106 -41 q-14 -141 -55.5 -278.5t-117.5 -274.5q-45 -82 -101 -143.5t-124.5 -92t-153.5 -25.5t-188 54q-94 47 -163.5 131t-104.5 213q-14 49 -23.5 127t-8.5 174.5zM129 2578q2 45 18.5 79t38 57.5t44 38t38.5 22.5q41 25 79 9.5t66.5 -55.5t43 -96.5t10.5 -111.5t-32 -102t-85 -70 q-55 -23 -98 -6.5t-71.5 54.5t-42 87t-9.5 94zM565 2578q2 45 18.5 79t38 57.5t44 38t39.5 22.5q41 25 78.5 9.5t66.5 -55.5t43 -96.5t10 -111.5t-32 -102t-85 -70q-55 -23 -98 -6.5t-71.5 54.5t-42 87t-9.5 94zM733 1358q2 -47 19.5 -83t62.5 -38q4 53 7 115.5t1 158.5 q0 27 -6 47.5t-16 26.5t-22.5 -6t-24.5 -51q-6 -27 -14.5 -75t-6.5 -95z" />
<glyph unicode="&#xf7;" horiz-adv-x="753" d="M-213 1526q-8 55 18.5 66.5t73.5 15.5q100 6 217 15t235 14t228.5 2t197.5 -20t143 -54t67 -99q4 -33 -18.5 -42t-79 -8t-151 5t-233.5 -2q-66 -4 -137.5 -10t-136 -12t-114.5 -11.5t-70 -7.5q-33 -2 -74 9.5t-77 32t-61.5 48t-27.5 58.5zM213 1079q2 45 18.5 79t38 57.5 t44 38t38.5 22.5q41 25 79 9.5t66.5 -55.5t43 -96.5t10.5 -111.5t-32 -102t-85 -70q-55 -23 -98 -6.5t-71.5 54.5t-42 87t-9.5 94zM225 1976q2 45 18.5 79t38 57.5t44 38t39.5 22.5q41 25 78.5 9.5t66.5 -55.5t43 -96.5t10 -111.5t-32 -102t-85 -70q-55 -23 -98 -6.5 t-71.5 54.5t-42 87t-9.5 94z" />
<glyph unicode="&#xf8;" horiz-adv-x="1134" d="M-3 1097.5q1 96.5 13.5 204t41 215t74.5 210t114 186.5q47 57 100 81.5t107.5 23.5t106.5 -23.5t99 -57.5q39 -31 51.5 -59.5t8.5 -57t-18.5 -61.5t-28.5 -71q-55 -154 -89 -263.5t-50.5 -190.5t-20.5 -139.5t0 -109.5l6 -80l197 520q-4 39 -2 78t10 74q12 53 37.5 104.5 t74.5 67.5q43 117 79 218t63 179q39 113 71.5 161t56 49t37 -37t13.5 -95q0 -39 -17.5 -100.5t-43 -129t-52 -132t-45.5 -109.5q-4 -8 -7 -17.5t-7 -19.5q33 -31 47 -79t18.5 -103t2 -114.5t-2.5 -114.5q31 2 56.5 13t48.5 28q41 29 62.5 61.5t23.5 30.5q16 0 40.5 -11.5 t24.5 -27.5q-23 -33 -48 -61.5t-56 -53.5q-63 -51 -158 -72q-14 -141 -55 -278t-117 -275q-74 -135 -177 -208.5t-251 -44.5q-57 -131 -107 -244t-89 -193q-31 -61 -54.5 -100t-37 -49t-15.5 10t10 78q2 16 17.5 62t41 116t59.5 159t73 191l-37 17q-94 47 -163.5 131 t-104.5 213q-14 49 -23.5 126.5t-8.5 174zM565 707q37 -82 92.5 -93.5t118.5 84.5q72 111 107 237t45 261q-47 -4 -82 8.5t-60 36.5q-53 -129 -108.5 -264t-112.5 -270zM852 1403q4 -43 21.5 -74t60.5 -33q4 53 7 116t1 159q0 25 -6 43z" />
<glyph unicode="&#xf9;" horiz-adv-x="1454" d="M-4 907.5q0 108.5 8 208t12 162.5q2 55 10.5 115.5t17.5 136.5t16.5 169t7.5 216q37 29 91 31t107 -20.5t94 -69t52 -115.5q-10 -98 -24.5 -210t-26 -229.5t-15.5 -234.5t6 -223q2 -96 17.5 -129t39 -25t52 47t55.5 87t49.5 93.5t34.5 67.5q59 117 97 217.5t61 186.5 q12 115 19 191.5t12.5 128.5t7.5 88t4 69q20 14 52 24.5t64.5 13.5t63.5 -1.5t49 -16.5q66 -39 88 -162q-12 -113 -28.5 -243.5t-27.5 -266t-10 -266.5t23 -243q18 -45 48 -18.5t69 85.5q39 72 85 158t92 176t90 177t79 161q12 6 25.5 6t26 -5t19.5 -15.5t5 -24.5 q-31 -68 -71 -154t-85 -178t-93 -187t-95 -181q-49 -92 -93 -165t-104 -118q-100 -80 -188 6q-47 51 -78 120.5t-49.5 148.5t-26.5 162t-10 163q-49 -100 -101.5 -214t-115.5 -212q-37 -57 -92.5 -99t-114.5 -57.5t-117.5 3t-103.5 81.5q-47 70 -63.5 172.5t-16.5 211z M446.5 2712q-2.5 43 32.5 81q37 45 80 48.5t88 -22.5t89 -73t84 -99t75 -102.5t59 -82.5q33 -49 60.5 -96.5t47 -85t28 -65.5t2.5 -38q-16 -16 -43 -12t-62 22.5t-77 48t-85 64.5q-37 31 -86 68.5t-99 79.5t-95 86t-70.5 89.5t-28 88.5z" />
<glyph unicode="&#xfa;" horiz-adv-x="1454" d="M-4 907.5q0 108.5 8 208t12 162.5q2 55 10.5 115.5t17.5 136.5t16.5 169t7.5 216q37 29 91 31t107 -20.5t94 -69t52 -115.5q-10 -98 -24.5 -210t-26 -229.5t-15.5 -234.5t6 -223q2 -96 17.5 -129t39 -25t52 47t55.5 87t49.5 93.5t34.5 67.5q59 117 97 217.5t61 186.5 q12 115 19 191.5t12.5 128.5t7.5 88t4 69q20 14 52 24.5t64.5 13.5t63.5 -1.5t49 -16.5q66 -39 88 -162q-12 -113 -28.5 -243.5t-27.5 -266t-10 -266.5t23 -243q18 -45 48 -18.5t69 85.5q39 72 85 158t92 176t90 177t79 161q12 6 25.5 6t26 -5t19.5 -15.5t5 -24.5 q-31 -68 -71 -154t-85 -178t-93 -187t-95 -181q-49 -92 -93 -165t-104 -118q-100 -80 -188 6q-47 51 -78 120.5t-49.5 148.5t-26.5 162t-10 163q-49 -100 -101.5 -214t-115.5 -212q-37 -57 -92.5 -99t-114.5 -57.5t-117.5 3t-103.5 81.5q-47 70 -63.5 172.5t-16.5 211z M242 2177q-6 10 2 38t27.5 65.5t47 85t60.5 96.5q25 33 59.5 83t74.5 103t85 99t89 73t87 24t80 -51q31 -39 29 -83t-28 -88t-69 -89t-92 -86t-98 -78.5t-88 -68.5q-43 -35 -85 -64.5t-77 -48t-62.5 -22.5t-41.5 12z" />
<glyph unicode="&#xfb;" horiz-adv-x="1454" d="M-4 907.5q0 108.5 8 208t12 162.5q2 55 10.5 115.5t17.5 136.5t16.5 169t7.5 216q37 29 91 31t107 -20.5t94 -69t52 -115.5q-10 -98 -24.5 -210t-26 -229.5t-15.5 -234.5t6 -223q2 -96 17.5 -129t39 -25t52 47t55.5 87t49.5 93.5t34.5 67.5q59 117 97 217.5t61 186.5 q12 115 19 191.5t12.5 128.5t7.5 88t4 69q20 14 52 24.5t64.5 13.5t63.5 -1.5t49 -16.5q66 -39 88 -162q-12 -113 -28.5 -243.5t-27.5 -266t-10 -266.5t23 -243q18 -45 48 -18.5t69 85.5q39 72 85 158t92 176t90 177t79 161q12 6 25.5 6t26 -5t19.5 -15.5t5 -24.5 q-31 -68 -71 -154t-85 -178t-93 -187t-95 -181q-49 -92 -93 -165t-104 -118q-100 -80 -188 6q-47 51 -78 120.5t-49.5 148.5t-26.5 162t-10 163q-49 -100 -101.5 -214t-115.5 -212q-37 -57 -92.5 -99t-114.5 -57.5t-117.5 3t-103.5 81.5q-47 70 -63.5 172.5t-16.5 211z M48 2272.5q7 56.5 42 97.5l662 501q2 0 10 -5t31.5 -25.5t68.5 -63.5t122 -120l192.5 -192.5t281.5 -283.5q-2 -53 -8 -66.5t-23 -21.5q-16 -4 -38.5 -10t-51.5 8l-534 537l-545 -482q-78 -43 -126 -28.5t-69.5 56.5t-14.5 98.5z" />
<glyph unicode="&#xfc;" horiz-adv-x="1454" d="M-4 907.5q0 108.5 8 208t12 162.5q2 55 10.5 115.5t17.5 136.5t16.5 169t7.5 216q37 29 91 31t107 -20.5t94 -69t52 -115.5q-10 -98 -24.5 -210t-26 -229.5t-15.5 -234.5t6 -223q2 -96 17.5 -129t39 -25t52 47t55.5 87t49.5 93.5t34.5 67.5q59 117 97 217.5t61 186.5 q12 115 19 191.5t12.5 128.5t7.5 88t4 69q20 14 52 24.5t64.5 13.5t63.5 -1.5t49 -16.5q66 -39 88 -162q-12 -113 -28.5 -243.5t-27.5 -266t-10 -266.5t23 -243q18 -45 48 -18.5t69 85.5q39 72 85 158t92 176t90 177t79 161q12 6 25.5 6t26 -5t19.5 -15.5t5 -24.5 q-31 -68 -71 -154t-85 -178t-93 -187t-95 -181q-49 -92 -93 -165t-104 -118q-100 -80 -188 6q-47 51 -78 120.5t-49.5 148.5t-26.5 162t-10 163q-49 -100 -101.5 -214t-115.5 -212q-37 -57 -92.5 -99t-114.5 -57.5t-117.5 3t-103.5 81.5q-47 70 -63.5 172.5t-16.5 211z M289 2578q2 45 18.5 79t38 57.5t44 38t38.5 22.5q41 25 79 9.5t66.5 -55.5t43 -96.5t10.5 -111.5t-32 -102t-85 -70q-55 -23 -98 -6.5t-72 54.5t-42 87t-9 94zM725 2578q2 45 18.5 79t38 57.5t44 38t38.5 22.5q41 25 79 9.5t66.5 -55.5t43 -96.5t10.5 -111.5t-32 -102 t-85 -70q-55 -23 -98 -6.5t-71.5 54.5t-42 87t-9.5 94z" />
<glyph unicode="&#xfd;" horiz-adv-x="1470" d="M-96 1042.5q8 149.5 21.5 297t27.5 294t14 293.5q39 31 98.5 33t118 -21.5t103.5 -72.5t55 -123q-14 -117 -31.5 -249t-27.5 -269q-2 -20 -5.5 -79t-3.5 -131.5t4.5 -151.5t14.5 -142.5t29.5 -100t50.5 -26.5q49 20 133 160q41 70 97 182.5t128 292.5q16 160 20.5 290 t8.5 212q0 20 -1 39.5t-1 39.5q37 35 96 51.5t117.5 8.5t106 -46t59.5 -114q0 -6 2 -67.5t5 -154.5t6 -206t6 -223.5t5 -205.5t2 -155l6 9q43 59 93.5 148t102.5 191.5t104.5 209t97.5 198.5q16 14 32.5 16.5t28.5 -4t18.5 -17.5t4.5 -24h-4q-80 -166 -193 -405.5 t-289 -525.5q-2 -94 -5 -180.5t-6 -157t-5 -120.5t-2 -73q-6 -115 -14.5 -249t-24.5 -276.5t-43 -283.5t-70 -270t-104.5 -236.5t-147.5 -181.5q-92 -78 -177 -101.5t-163 -4.5q-100 25 -160.5 96t-91 164.5t-34.5 193t8 178.5q25 162 84 317.5t121 284.5 q53 111 113.5 212.5t119.5 189.5q51 74 100.5 136.5t92.5 109.5q-4 180 -7.5 376.5t-7.5 376.5q-31 -66 -71.5 -156.5t-96.5 -183.5q-37 -59 -78.5 -113.5t-91 -94t-106.5 -62.5t-125 -18q-47 2 -90 29.5t-79 75.5t-60.5 115.5t-34.5 151.5q-12 154 -4 303.5zM228 -1161.5 q3 -71.5 22.5 -123.5t62.5 -63q45 -8 88 28t82 97.5t72 140t58.5 156.5t43 145.5t25.5 108.5q18 104 30.5 213t21.5 208t14.5 183t9.5 140q-66 -78 -115 -144.5t-88 -126t-68.5 -115t-56.5 -110.5q-16 -35 -39.5 -86t-48.5 -111.5t-47.5 -126t-36.5 -129.5 q-14 -59 -23.5 -136t-6.5 -148.5zM250 2177q-6 10 2 38t27.5 65.5t47 85t60.5 96.5q25 33 59.5 83t74.5 103t85 99t89 73t87 24t80 -51q31 -39 29 -83t-27.5 -88t-68.5 -89t-92.5 -86t-98.5 -78.5t-88 -68.5q-43 -35 -85 -64.5t-77 -48t-62.5 -22.5t-41.5 12z" />
<glyph unicode="&#xfe;" horiz-adv-x="573" d="M-579 976q-1 136 0 233.5t1 129.5q6 346 29 686t33 678q0 117 37 160t98 33q61 -12 98 -41t56.5 -69t26.5 -92t7 -109q-6 -119 -11 -253t-9 -272.5t-8 -275.5t-8 -260q49 57 112.5 103t139 74t161.5 37t181 -7q117 -41 184 -151t97 -250t27 -290.5t-28 -273.5 q59 70 120.5 156t119 176t107.5 177t87 159q18 33 40 47t34 9t12 -30.5t-24 -75.5q-55 -100 -129 -233t-165 -268t-197.5 -259t-227.5 -204t-255.5 -103t-279.5 43q-12 8 -28.5 22.5t-32.5 31t-28.5 33t-14.5 26.5q-10 39 7 53.5t36 -6.5q27 -29 67.5 -58.5t88.5 -37.5 q72 -14 127 45t94 160.5t58.5 228.5t20.5 246t-19.5 213t-63.5 133q-35 51 -81 81t-101.5 25.5t-119 -47.5t-130.5 -137q-2 -94 -3.5 -241.5t-0.5 -318.5t2.5 -352t3.5 -344t4 -295t4 -204q-12 -25 -35 -40t-47 -21q-59 -16 -101.5 45t-73 172.5t-49 263t-29.5 314.5 t-15.5 326t-5.5 299z" />
<glyph unicode="&#xff;" horiz-adv-x="1470" d="M-96 1042.5q8 149.5 21.5 297t27.5 294t14 293.5q39 31 98.5 33t118 -21.5t103.5 -72.5t55 -123q-14 -117 -31.5 -249t-27.5 -269q-2 -20 -5.5 -79t-3.5 -131.5t4.5 -151.5t14.5 -142.5t29.5 -100t50.5 -26.5q49 20 133 160q41 70 97 182.5t128 292.5q16 160 20.5 290 t8.5 212q0 20 -1 39.5t-1 39.5q37 35 96 51.5t117.5 8.5t106 -46t59.5 -114q0 -6 2 -67.5t5 -154.5t6 -206t6 -223.5t5 -205.5t2 -155l6 9q43 59 93.5 148t102.5 191.5t104.5 209t97.5 198.5q16 14 32.5 16.5t28.5 -4t18.5 -17.5t4.5 -24h-4q-80 -166 -193 -405.5 t-289 -525.5q-2 -94 -5 -180.5t-6 -157t-5 -120.5t-2 -73q-6 -115 -14.5 -249t-24.5 -276.5t-43 -283.5t-70 -270t-104.5 -236.5t-147.5 -181.5q-92 -78 -177 -101.5t-163 -4.5q-100 25 -160.5 96t-91 164.5t-34.5 193t8 178.5q25 162 84 317.5t121 284.5 q53 111 113.5 212.5t119.5 189.5q51 74 100.5 136.5t92.5 109.5q-4 180 -7.5 376.5t-7.5 376.5q-31 -66 -71.5 -156.5t-96.5 -183.5q-37 -59 -78.5 -113.5t-91 -94t-106.5 -62.5t-125 -18q-47 2 -90 29.5t-79 75.5t-60.5 115.5t-34.5 151.5q-12 154 -4 303.5zM228 -1161.5 q3 -71.5 22.5 -123.5t62.5 -63q45 -8 88 28t82 97.5t72 140t58.5 156.5t43 145.5t25.5 108.5q18 104 30.5 213t21.5 208t14.5 183t9.5 140q-66 -78 -115 -144.5t-88 -126t-68.5 -115t-56.5 -110.5q-16 -35 -39.5 -86t-48.5 -111.5t-47.5 -126t-36.5 -129.5 q-14 -59 -23.5 -136t-6.5 -148.5zM297 2578q2 45 18.5 79t38 57.5t44 38t38.5 22.5q41 25 79 9.5t66.5 -55.5t43 -96.5t10.5 -111.5t-32 -102t-85 -70q-55 -23 -98 -6.5t-72 54.5t-42 87t-9 94zM733 2578q2 45 18.5 79t38 57.5t44 38t38.5 22.5q41 25 79 9.5t67 -55.5 t43 -96.5t10 -111.5t-32 -102t-85 -70q-55 -23 -98 -6.5t-71.5 54.5t-42 87t-9.5 94z" />
<glyph unicode="&#x152;" horiz-adv-x="4194" d="M24.5 1774q6.5 215 22.5 393q4 47 31.5 80.5t72 54t101.5 27t123 -1.5q31 199 110.5 392t198.5 354t272.5 273.5t329.5 146.5t371.5 -26.5t398.5 -242.5q113 -135 200 -319.5t146 -407.5q74 166 192 316t267.5 261t324.5 170t363 43q100 -10 192.5 -46t166 -97.5 t125 -146.5t69.5 -193q20 -158 -21.5 -288t-128.5 -236.5t-210 -191.5t-261.5 -149.5t-285 -110.5t-281.5 -77q20 -35 75.5 -78t121.5 -69q45 -18 92 -30.5t84 -24t61.5 -20.5t26.5 -22q4 -23 -23.5 -45t-71.5 -52t-97.5 -68.5t-102.5 -92.5q-59 -66 -95 -154.5t-49.5 -190 t-5 -207t39.5 -201.5q45 -143 130 -225.5t192.5 -112t226 -11t231.5 75t210 145.5t159 201q35 6 56 0t32.5 -18t12.5 -27.5t-5 -27.5q-186 -326 -391 -512.5t-407 -260t-388 -48t-334.5 125t-247 258t-125.5 351.5q-23 -51 -45 -99.5t-49 -95.5q-147 -268 -362 -428 t-455 -201q-256 -45 -454.5 3.5t-347 166t-253 291.5t-172 383t-104.5 439.5t-49.5 460t-6 444.5zM895 1292q2 -180 18.5 -351t49 -322.5t82 -276.5t118 -213t157.5 -132t200 -34q63 6 124.5 35t118 74t106.5 104.5t89 126.5q55 100 93 207.5t61.5 219.5t35 223.5 t13.5 217.5q2 184 -15.5 397.5t-55.5 425.5t-99.5 408.5t-147.5 347.5q-92 174 -179 256t-166 88.5t-147.5 -52t-123.5 -165.5q-68 -133 -109 -304t-63.5 -356t-27.5 -371.5t1 -348.5q8 -57 19.5 -94t5.5 -59.5t-41 -34t-117 -17.5zM2501 1128q47 76 107 145.5t132 135.5 q-131 51 -217 129v-47q-2 -92 -7 -181t-15 -182zM2841 1894q168 18 303 62.5t241.5 103t183 126t128 134t77 126t27.5 100.5q2 63 -24.5 110t-81 67.5t-135 7.5t-187.5 -71q-106 -59 -207.5 -147t-178.5 -190.5t-119 -213t-27 -215.5z" />
<glyph unicode="&#x153;" horiz-adv-x="1970" d="M-153 1038.5q1 96.5 13.5 204t41 215t75 209.5t113.5 186q47 57 100.5 82t107.5 24t106.5 -23.5t99.5 -57.5q39 -31 51 -59.5t8 -57t-18.5 -61.5t-28.5 -72q-55 -154 -89 -263.5t-50.5 -190t-20.5 -139t0 -109.5q6 -109 30 -197t60.5 -134t82.5 -40t98 84 q72 111 106.5 236.5t44.5 261.5q-74 -6 -121 29.5t-71.5 94t-27.5 127t9 130.5q8 31 19.5 62.5t29 57t42 42t61.5 16.5q80 0 116.5 -44t49 -110.5t10.5 -146.5t-2 -150q41 -4 85 29t84 75t69.5 80.5t42.5 47.5q16 0 40.5 -11.5t24.5 -27.5q-35 -47 -73 -92.5t-81 -84 t-92 -67.5t-106 -41q-14 -141 -55 -278.5t-117 -274.5q-45 -82 -101.5 -143.5t-125 -92t-153.5 -25.5t-188 54q-94 47 -163.5 131t-104.5 213q-14 49 -23.5 127t-8.5 174.5zM702.5 1358q2.5 -47 19.5 -83t62 -38q4 53 7.5 115.5t1.5 158.5q0 27 -6.5 47.5t-16.5 26.5 t-22.5 -6t-24.5 -51q-6 -27 -14.5 -75t-6 -95zM801.5 1083.5q13.5 147.5 56.5 287.5t111.5 265t152.5 217.5t180.5 141.5t194.5 39q94 -10 164 -67.5t104.5 -139.5t31.5 -178.5t-52 -184.5q-33 -59 -84 -105t-114.5 -83t-135.5 -62.5t-143 -42.5q-25 -111 -39.5 -217 t-12 -192t25 -141.5t73.5 -61.5q70 -10 141.5 28t141 107.5t134 160.5t122 187.5t105.5 189.5t83 165.5t56.5 115.5t25.5 39q23 2 38 -14t7 -57q-18 -47 -52 -122t-79 -164t-99.5 -186.5t-113 -188.5t-119.5 -170t-119 -130q-135 -117 -261 -149.5t-230.5 7.5t-178 148.5 t-104.5 272.5q-25 137 -11.5 284.5zM1294 1276q70 18 143.5 47t133 74t99.5 108.5t44 151.5q8 125 -117 160q-33 8 -72.5 -35t-80.5 -119t-80 -177t-70 -210z" />
<glyph unicode="&#x178;" horiz-adv-x="1974" d="M155 1875q5 187 17 370q4 63 11 140t22.5 155.5t41 152.5t66.5 131.5t98.5 92t137.5 34.5q74 8 144.5 1t127 -33.5t92 -72.5t39.5 -114q2 -49 -16 -165t-42 -271.5t-47.5 -335.5t-30.5 -357.5t7.5 -337t65.5 -272.5q37 -86 100.5 -136t137 -60.5t149.5 21.5t139 112 q47 59 88 135t70 162l51 1040q10 94 55 157.5t109.5 97.5t140.5 40t145.5 -15.5t126 -69.5t83.5 -122q-25 -98 -32 -227t-24 -264q-20 -172 -35.5 -363.5t-32 -391.5t-35 -403.5t-44.5 -400.5q111 4 223.5 -3t219 -21.5t201.5 -35.5t171 -46q242 -70 472 -160t472 -195 q125 -51 303 -119.5t385 -136t432.5 -122t446.5 -78t426 -4t371.5 100.5t282.5 233.5t159 398.5q25 82 30 158.5t22 130t63.5 73t154.5 -13.5q115 -39 177.5 -122t84 -191.5t5 -230.5t-59.5 -240.5t-109.5 -222t-146.5 -173.5q-115 -104 -257 -175t-299 -114t-320.5 -60 t-321.5 -13q-240 4 -495 59t-510 140t-503.5 188.5t-476.5 202.5q-156 70 -307 135t-301 131q-113 51 -241 109.5t-260 111.5t-264 97t-251 65q-29 -190 -69.5 -366.5t-97 -328t-131 -272.5t-173.5 -203q-117 -98 -224.5 -125.5t-207.5 -5.5q-113 27 -183.5 83.5t-105 132 t-40 163.5t13 178t57.5 174t92 154q111 147 246 255t283 194l39 739q-49 -109 -127 -185.5t-179.5 -120.5t-223.5 -55.5t-259 11.5q-160 27 -270.5 109.5t-181 205.5t-106.5 280.5t-49 333t-8 362.5zM957.5 -649q-3.5 -47 16 -82t70.5 -47q82 -18 147.5 23.5t115 118.5 t86.5 175.5t59.5 192.5t34.5 172t14 114q-16 -6 -56 -25.5t-94.5 -55t-114.5 -90t-116 -128.5q-18 -25 -44.5 -67.5t-52.5 -94t-44 -105.5t-21.5 -101zM1049 3289q2 45 18 79t37.5 57.5t44 38t39.5 22.5q41 25 79 9.5t66.5 -55.5t43 -96.5t10 -112t-32 -102t-84.5 -69.5 q-55 -23 -98.5 -6.5t-72 54.5t-42 87t-8.5 94zM1485 3289q2 45 18.5 79t38 57.5t44 38t38.5 22.5q41 25 79 9.5t66.5 -55.5t43 -96.5t10.5 -112t-32 -102t-85 -69.5q-55 -23 -98 -6.5t-72 54.5t-42 87t-9 94z" />
<glyph unicode="&#x2c6;" horiz-adv-x="1507" d="M54 2272.5q7 56.5 42 97.5l662 501q2 0 10 -5t31.5 -25.5t68.5 -63.5t122 -120l192.5 -192.5t281.5 -283.5q-2 -53 -8 -66.5t-22 -21.5q-16 -4 -39 -10t-52 8l-534 537l-545 -482q-78 -43 -126 -28.5t-69.5 56.5t-14.5 98.5z" />
<glyph unicode="&#x2dc;" horiz-adv-x="1124" d="M31 2601q-4 6 2 6q4 0 36.5 -12t82.5 -29q84 -31 164.5 -31t157.5 16.5t150.5 41.5t145.5 43q35 8 78 18t85 6t79 -30.5t59 -92.5q2 -6 -2 -6q-68 0 -143.5 -22.5t-156.5 -53t-165 -60.5t-166 -44t-159.5 -6t-149.5 55q-39 25 -63.5 70t-34.5 131z" />
<glyph unicode="&#x2000;" horiz-adv-x="2312" />
<glyph unicode="&#x2001;" horiz-adv-x="4624" />
<glyph unicode="&#x2002;" horiz-adv-x="2312" />
<glyph unicode="&#x2003;" horiz-adv-x="4624" />
<glyph unicode="&#x2004;" horiz-adv-x="1541" />
<glyph unicode="&#x2005;" horiz-adv-x="1156" />
<glyph unicode="&#x2006;" horiz-adv-x="770" />
<glyph unicode="&#x2007;" horiz-adv-x="770" />
<glyph unicode="&#x2008;" horiz-adv-x="578" />
<glyph unicode="&#x2009;" horiz-adv-x="924" />
<glyph unicode="&#x200a;" horiz-adv-x="256" />
</font>
</defs>
</svg>
